Gira en torno a la aparición de Stonebanks, el otro fundador del grupo conocido como Los Mercenarios, en la vida de Barney. Sus caminos se separaron cuando este se convirtió en traficante de armas, por lo que Barney se vio obligado a intentar matarle. Los Mercenarios se enfrentarán a este villano mientras se debaten entre las viejas y las nuevas tácticas de combate.




Título original: The Expendables 3
Año: 2014
Duración: 123 min.
País: Estados Unidos
Director: Patrick Hughes
Guión: Sylvester Stallone, Creighton Rothenberger, Katrin Benedikt (Personajes: Dave Callaham)
Música: Brian Tyler
Fotografía: Peter Menzies Jr.
Reparto: Sylvester Stallone, Jason Statham, Arnold Schwarzenegger, Harrison Ford, Mel Gibson, Jet Li, Dolph Lundgren, Terry Crews, Randy Couture, Wesley Snipes, Antonio Banderas, Kellan Lutz, Ronda Rousey, Victor Ortiz, Kelsey Grammer, Glen Powell, Robert Davi
Productora: Millennium Films / Nu Image Films
Género: Acción | Secuela

Formato: Matroska BDRip microHD 720p
Tamaño: 3.39 GiB
Resolución: 1280x534
Audio 1: AC3 5.1 448 Kbps Castellano
Audio 2: AC3 5.1 448 Kbps Inglés
Subs: Español e Ingles.
Descomprimir: WinRar

MEDIA INFO

[spoiler]Format : Matroska
Format version : Version 4 / Version 2
File size : 3.39 GiB
Duration : 2h 6mn
Overall bit rate : 3 838 Kbps
Encoded date : UTC 2014-12-02 15:03:21
Writing application : mkvmerge v6.5.0 ('Isn't she lovely') built on Oct 20 2013 12:50:05
Writing library : libebml v1.3.0 + libmatroska v1.4.1

Video
ID : 1
Format : AVC
Format/Info : Advanced Video Codec
Format profile : High@L4.1
Format settings, CABAC : Yes
Format settings, ReFrames : 2 frames
Codec ID : V_MPEG4/ISO/AVC
Duration : 2h 6mn
Bit rate : 2 866 Kbps
Width : 1 280 pixels
Height : 534 pixels
Display aspect ratio : 2.40:1
Frame rate mode : Constant
Frame rate : 23.976 fps
Color space : YUV
Chroma subsampling : 4:2:0
Bit depth : 8 bits
Scan type : Progressive
Bits/(Pixel*Frame) : 0.175
Stream size : 2.53 GiB (75%)
Writing library : x264 core
Default : Yes
Forced : No
Color primaries : BT.709
Transfer characteristics : BT.709
Matrix coefficients : BT.709

Audio #1
ID : 2
Format : AC-3
Format/Info : Audio Coding 3
Mode extension : CM (complete main)
Format settings, Endianness : Big
Codec ID : A_AC3
Duration : 2h 6mn
Bit rate mode : Constant
Bit rate : 448 Kbps
Channel count : 6 channels
Channel positions : Front: L C R, Side: L R, LFE
Sampling rate : 48.0 KHz
Bit depth : 16 bits
Compression mode : Lossy
Stream size : 405 MiB (12%)
Language : Spanish
Default : Yes
Forced : No

Audio #2
ID : 3
Format : AC-3
Format/Info : Audio Coding 3
Mode extension : CM (complete main)
Format settings, Endianness : Big
Codec ID : A_AC3
Duration : 2h 6mn
Bit rate mode : Constant
Bit rate : 448 Kbps
Channel count : 6 channels
Channel positions : Front: L C R, Side: L R, LFE
Sampling rate : 48.0 KHz
Bit depth : 16 bits
Compression mode : Lossy
Stream size : 405 MiB (12%)
Language : English
Default : No
Forced : No

Text #1
ID : 4
Format : UTF-8
Codec ID : S_TEXT/UTF8
Codec ID/Info : UTF-8 Plain Text
Language : Spanish
Default : No
Forced : No

Text #2
ID : 5
Format : UTF-8
Codec ID : S_TEXT/UTF8
Codec ID/Info : UTF-8 Plain Text
Language : English
Default : No
Forced : No

Menu
00:00:00.000 : en:00:00:00.000
00:07:07.594 : en:00:07:07.594
00:12:42.095 : en:00:12:42.095
00:21:45.387 : en:00:21:45.387
00:29:31.728 : en:00:29:31.728
00:35:39.929 : en:00:35:39.929
00:41:51.050 : en:00:41:51.050
00:48:05.174 : en:00:48:05.174
00:54:13.250 : en:00:54:13.250
01:00:05.810 : en:01:00:05.810
01:10:43.114 : en:01:10:43.114
01:19:17.586 : en:01:19:17.586
01:28:05.864 : en:01:28:05.864
01:34:28.913 : en:01:34:28.913
01:43:15.064 : en:01:43:15.064
01:51:11.707 : en:01:51:11.707[/spoiler]














1 Link



Código:
http://uploaded.net/file/fxsof0kn/m3rc3n4r10s.3.BDR.m720.flash.rar

Links Por Partes



Código:
http://uploaded.net/file/37kbafv8/m3rc3n4r10s.3.BDR.m720-flash.part1.rar
http://uploaded.net/file/ftyyp6xb/m3rc3n4r10s.3.BDR.m720-flash.part2.rar
http://uploaded.net/file/uitplrb3/m3rc3n4r10s.3.BDR.m720-flash.part3.rar
http://uploaded.net/file/cursdmyx/m3rc3n4r10s.3.BDR.m720-flash.part4.rar
http://uploaded.net/file/wn86sboi/m3rc3n4r10s.3.BDR.m720-flash.part5.rar

Mixto - Uptobox, 1Fichier (Uploaded 100 MB Aproximadamente)




Código:
http://uptobox.com/iwns4ml3v9rh
http://uptobox.com/yityvdm6bzpu
http://uptobox.com/jrx9k5r3qc2u
http://uptobox.com/9o0oxm5eb14x
http://uploaded.net/file/wn86sboi/m3rc3n4r10s.3.BDR.m720-flash.part5.rar




Código:
https://1fichier.com/?90djbhfb8h
https://1fichier.com/?110wz24bkv
https://1fichier.com/?hqjxphktus
https://1fichier.com/?8l0ekcy5b1
http://uploaded.net/file/wn86sboi/m3rc3n4r10s.3.BDR.m720-flash.part5.rar