Gira en torno a la aparición de Stonebanks, el otro fundador del grupo conocido como Los Mercenarios, en la vida de Barney. Sus caminos se separaron cuando este se convirtió en traficante de armas, por lo que Barney se vio obligado a intentar matarle. Los Mercenarios se enfrentarán a este villano mientras se debaten entre las viejas y las nuevas tácticas de combate.




Título original: The Expendables 3
Año: 2014
Duración: 123 min.
País: Estados Unidos
Director: Patrick Hughes
Guión: Sylvester Stallone, Creighton Rothenberger, Katrin Benedikt (Personajes: Dave Callaham)
Música: Brian Tyler
Fotografía: Peter Menzies Jr.
Reparto: Sylvester Stallone, Jason Statham, Arnold Schwarzenegger, Harrison Ford, Mel Gibson, Jet Li, Dolph Lundgren, Terry Crews, Randy Couture, Wesley Snipes, Antonio Banderas, Kellan Lutz, Ronda Rousey, Victor Ortiz, Kelsey Grammer, Glen Powell, Robert Davi
Productora: Millennium Films / Nu Image Films
Género: Acción | Secuela

Formato: Matroska BDRip microHD 1080p
Tamaño: 4.51 GiB
Resolución: 1920x800
Audio 1: AC3 5.1 448 Kbps Castellano
Audio 2: AC3 5.1 448 Kbps Inglés
Subs: Español e Ingles.
Descomprimir: WinRar

MEDIA INFO

[spoiler]Format : Matroska
Format version : Version 4 / Version 2
File size : 4.51 GiB
Duration : 2h 6mn
Overall bit rate : 5 105 Kbps
Encoded date : UTC 2014-12-02 14:58:13
Writing application : mkvmerge v6.5.0 ('Isn't she lovely') built on Oct 20 2013 12:50:05
Writing library : libebml v1.3.0 + libmatroska v1.4.1

Video
ID : 1
Format : AVC
Format/Info : Advanced Video Codec
Format profile : High@L4.1
Format settings, CABAC : Yes
Format settings, ReFrames : 2 frames
Codec ID : V_MPEG4/ISO/AVC
Duration : 2h 6mn
Bit rate : 4 107 Kbps
Nominal bit rate : 4 400 Kbps
Width : 1 920 pixels
Height : 800 pixels
Display aspect ratio : 2.40:1
Frame rate mode : Constant
Frame rate : 23.976 fps
Color space : YUV
Chroma subsampling : 4:2:0
Bit depth : 8 bits
Scan type : Progressive
Bits/(Pixel*Frame) : 0.112
Stream size : 3.63 GiB (80%)
Writing library : x264 core 142
Encoding settings : cabac=1 / ref=1 / deblock=1:-1:-1 / analyse=0x3:0 / me=hex / subme=5 / psy=0 / mixed_ref=0 / me_range=16 / chroma_me=1 / trellis=0 / 8x8dct=1 / cqm=0 / deadzone=21,11 / fast_pskip=1 / chroma_qp_offset=0 / threads=8 / lookahead_threads=2 / sliced_threads=0 / nr=0 / decimate=1 / interlaced=0 / bluray_compat=0 / constrained_intra=0 / bframes=2 / b_pyramid=0 / b_adapt=1 / b_bias=0 / direct=1 / weightb=1 / open_gop=0 / weightp=0 / keyint=24 / keyint_min=13 / scenecut=40 / intra_refresh=0 / rc=abr / mbtree=0 / bitrate=4400 / ratetol=1.0 / qcomp=0.60 / qpmin=0 / qpmax=69 / qpstep=4 / ip_ratio=1.40 / pb_ratio=1.30 / aq=1:1.00
Default : Yes
Forced : No
Color primaries : BT.709
Transfer characteristics : BT.709
Matrix coefficients : BT.709

Audio #1
ID : 2
Format : AC-3
Format/Info : Audio Coding 3
Mode extension : CM (complete main)
Format settings, Endianness : Big
Codec ID : A_AC3
Duration : 2h 6mn
Bit rate mode : Constant
Bit rate : 448 Kbps
Channel count : 6 channels
Channel positions : Front: L C R, Side: L R, LFE
Sampling rate : 48.0 KHz
Bit depth : 16 bits
Compression mode : Lossy
Stream size : 405 MiB (9%)
Language : Spanish
Default : Yes
Forced : No

Audio #2
ID : 3
Format : AC-3
Format/Info : Audio Coding 3
Mode extension : CM (complete main)
Format settings, Endianness : Big
Codec ID : A_AC3
Duration : 2h 6mn
Bit rate mode : Constant
Bit rate : 448 Kbps
Channel count : 6 channels
Channel positions : Front: L C R, Side: L R, LFE
Sampling rate : 48.0 KHz
Bit depth : 16 bits
Compression mode : Lossy
Stream size : 405 MiB (9%)
Language : English
Default : No
Forced : No

Text #1
ID : 4
Format : UTF-8
Codec ID : S_TEXT/UTF8
Codec ID/Info : UTF-8 Plain Text
Language : Spanish
Default : No
Forced : No

Text #2
ID : 5
Format : UTF-8
Codec ID : S_TEXT/UTF8
Codec ID/Info : UTF-8 Plain Text
Language : English
Default : No
Forced : No

Menu
00:00:00.000 : en:00:00:00.000
00:07:07.594 : en:00:07:07.594
00:12:42.095 : en:00:12:42.095
00:21:45.387 : en:00:21:45.387
00:29:31.728 : en:00:29:31.728
00:35:39.929 : en:00:35:39.929
00:41:51.050 : en:00:41:51.050
00:48:05.174 : en:00:48:05.174
00:54:13.250 : en:00:54:13.250
01:00:05.810 : en:01:00:05.810
01:10:43.114 : en:01:10:43.114
01:19:17.586 : en:01:19:17.586
01:28:05.864 : en:01:28:05.864
01:34:28.913 : en:01:34:28.913
01:43:15.064 : en:01:43:15.064
01:51:11.707 : en:01:51:11.707[/spoiler]














1 Link



Código:
http://uploaded.net/file/y71kkf9k/m3rc3n4r10s.3.BDR.m1080.flash.rar

Links Por Partes



Código:
http://uploaded.net/file/86jj6iwy/m3rc3n4r10s.3.BDR.m1080-flash.part1.rar
http://uploaded.net/file/4hfsy34z/m3rc3n4r10s.3.BDR.m1080-flash.part2.rar
http://uploaded.net/file/2fg80f7e/m3rc3n4r10s.3.BDR.m1080-flash.part3.rar
http://uploaded.net/file/sbrq3xck/m3rc3n4r10s.3.BDR.m1080-flash.part4.rar
http://uploaded.net/file/hguv91k1/m3rc3n4r10s.3.BDR.m1080-flash.part5.rar
http://uploaded.net/file/vteunbpz/m3rc3n4r10s.3.BDR.m1080-flash.part6.rar

Mixto - Uptobox, 1Fichier (Uploaded 100 MB Aproximadamente)




Código:
http://uptobox.com/hxaitp3c429z
http://uptobox.com/hwdsaistalb9
http://uptobox.com/dh4a4gi7fs4q
http://uptobox.com/f1zcp2pmjh1e
http://uptobox.com/xeo64m0a9jwf
http://uploaded.net/file/vteunbpz/m3rc3n4r10s.3.BDR.m1080-flash.part6.rar




Código:
https://1fichier.com/?vnpjdyc2re
https://1fichier.com/?kg8kgr62jg
https://1fichier.com/?prtgn696rw
https://1fichier.com/?lm48iuaw85
https://1fichier.com/?kccmniovm4
http://uploaded.net/file/vteunbpz/m3rc3n4r10s.3.BDR.m1080-flash.part6.rar