Para la gente en Conway, Carolina del Sur, Duncan Mayor es un tipo muy mal humor. Para "mi dulce niña" - su esposa, Suzy - él es un gatito cariñoso. Pero Suzy es sólo a casa del hospital y atendido 24/7 por la enfermera Natalie, quien Duncan hace todo lo posible para ignorarlo. Duncan decide la mejor medicina Suzy podía tener - y un regalo de Navidad que nunca olvidará - es un paseo en una verdadera rueda de la fortuna, creada en su propio patio trasero. ¿Por qué una rueda de la fortuna? Debido a que fue durante la marcha atrás uno muchas lunas que Duncan preguntó Suzy se casara con él. ¿Dónde encontrar a 45 metros de altura de ruedas ocasión Ferris? Duncan una mina de oro en un parque de atracciones abandonado, presidida por un solo trabajador ex-carnaval - Henry. Montaje de la monstruosidad mecánica no es exactamente un trabajo de un solo hombre. Duncan consigue un importante asistencia de Tommy, un ex estudiante de Suzy, que está profundamente en deuda con ella. Se ha convertido en un exitoso diseñador de jardines después de un joven con problemas; era Suzy que le puso recta. Mientras tanto, los vecinos no se divierten




Título: Navidad en Conway
Título original: (Christmas in Conway
País: Estados Unidos
Estreno en USA: 25/11/2014
Estreno en España: SIN FECHA DEFINIDA
Productora: Hallmark Hall of Fame Productions
Director: John Kent Harrison
Guión: Stephen P. Lindsey, Luis Ugaz
Música: Geoff Zanelli
Reparto: Andy Garcia, Mandy Moore, Mary-Louise Parker, Andrea Powell

Calidad de Video: BDRip m720p By XKlusiveDD® [Ripeo & Encode Proper]
Calidad de Audio 1: Castellano AC3 5.1 384kbps By XKlusiveDD®
Calidad de Audio 2: Castellano AC3 5.1 384kbps By XKlusiveDD®
Subtitulos: Castellano e Ingles SRT Completos By XKlusiveDD®
Tamaño: 2.90 GB
Descomprimir: WinRar

MEDIA INFO

[spoiler]Format : Matroska
Format version : Version 2
File size : 2.90 GiB
Duration : 1h 36mn
Overall bit rate : 4 299 Kbps
Encoded date : UTC 2014-12-01 14:46:55
Writing application : mkvmerge v3.4.0 ('Rapunzel') built on May 15 2010 09:38:20
Writing library : libebml v0.8.0 + libmatroska v0.9.0

Video
ID : 1
Format : AVC
Format/Info : Advanced Video Codec
Format profile : High@L4.1
Format settings, CABAC : Yes
Format settings, ReFrames : 4 frames
Codec ID : V_MPEG4/ISO/AVC
Duration : 1h 36mn
Bit rate : 3 525 Kbps
Width : 1 280 pixels
Height : 720 pixels
Display aspect ratio : 16:9
Frame rate mode : Constant
Frame rate : 23.976 fps
Color space : YUV
Chroma subsampling : 4:2:0
Bit depth : 8 bits
Scan type : Progressive
Bits/(Pixel*Frame) : 0.160
Stream size : 2.33 GiB (80%)
Writing library : x264 core 130 r2273 b3065e6
Encoding settings : cabac=1 / ref=2 / deblock=1:0:0 / analyse=0x3:0x113 / me=hex / subme=4 / psy=1 / psy_rd=1.00:0.00 / mixed_ref=0 / me_range=16 / chroma_me=1 / trellis=1 / 8x8dct=1 / cqm=0 / deadzone=21,11 / fast_pskip=1 / chroma_qp_offset=0 / threads=12 / lookahead_threads=3 / sliced_threads=0 / nr=0 / decimate=1 / interlaced=0 / bluray_compat=0 / constrained_intra=0 / bframes=3 / b_pyramid=2 / b_adapt=1 / b_bias=0 / direct=1 / weightb=1 / open_gop=0 / weightp=1 / keyint=240 / keyint_min=24 / scenecut=40 / intra_refresh=0 / rc_lookahead=20 / rc=abr / mbtree=1 / bitrate=3525 / ratetol=1.0 / qcomp=0.60 / qpmin=0 / qpmax=69 / qpstep=4 / vbv_maxrate=62500 / vbv_bufsize=78125 / nal_hrd=none / ip_ratio=1.40 / aq=1:1.00
Language : English
Default : Yes
Forced : No
Color primaries : BT.709
Transfer characteristics : BT.709
Matrix coefficients : BT.709

Audio #1
ID : 2
Format : AC-3
Format/Info : Audio Coding 3
Mode extension : CM (complete main)
Format settings, Endianness : Big
Codec ID : A_AC3
Duration : 1h 36mn
Bit rate mode : Constant
Bit rate : 384 Kbps
Channel(s) : 6 channels
Channel positions : Front: L C R, Side: L R, LFE
Sampling rate : 48.0 KHz
Bit depth : 16 bits
Compression mode : Lossy
Stream size : 265 MiB (9%)
Language : Spanish
Default : Yes
Forced : No

Audio #2
ID : 3
Format : AC-3
Format/Info : Audio Coding 3
Mode extension : CM (complete main)
Format settings, Endianness : Big
Codec ID : A_AC3
Duration : 1h 36mn
Bit rate mode : Constant
Bit rate : 384 Kbps
Channel(s) : 6 channels
Channel positions : Front: L C R, Side: L R, LFE
Sampling rate : 48.0 KHz
Bit depth : 16 bits
Compression mode : Lossy
Stream size : 265 MiB (9%)
Language : English
Default : No
Forced : No

Text #1
ID : 4
Format : UTF-8
Codec ID : S_TEXT/UTF8
Codec ID/Info : UTF-8 Plain Text
Language : Spanish
Default : Yes
Forced : Yes

Text #2
ID : 5
Format : UTF-8
Codec ID : S_TEXT/UTF8
Codec ID/Info : UTF-8 Plain Text
Language : Spanish
Default : No
Forced : No

Text #3
ID : 6
Format : UTF-8
Codec ID : S_TEXT/UTF8
Codec ID/Info : UTF-8 Plain Text
Language : English
Default : No
Forced : No

Menu
00:00:00.000 : en:1
00:05:30.000 : en:2
00:10:07.000 : en:3
00:15:21.000 : en:4
00:21:22.000 : en:5
00:26:56.000 : en:6
00:34:06.000 : en:7
00:40:28.000 : en:8
00:48:36.000 : en:9
00:56:46.000 : en:10
01:02:25.000 : en:11
01:07:07.000 : en:12
01:12:35.000 : en:13
01:18:40.000 : en:14
01:23:11.000 : en:15
01:29:39.000 : en:16[/spoiler]


NOTA IMPORTANTE:
Aqui os dejamos este pedazo montaje en PRE-ESTRENO y con calidad BDRip m720p con audios duales 5.1.
Video ripeado desde la fuente WEB-DL 1080p a 2passes para obtener la mayor calidad posible.


Disfruten de esta estupenda pelicula en esta epoca que tantos deseamos y pasamos con la familia.














1 Link



Código:
http://uploaded.net/file/74b4vr7s/C0nw4y.BDR.m720p.flash.rar

Links Por Partes



Código:
http://uploaded.net/file/buanwbzz/C0nw4y.BDR.m720p-flash.part1.rar
http://uploaded.net/file/8tl8ywlx/C0nw4y.BDR.m720p-flash.part2.rar
http://uploaded.net/file/5tx1g157/C0nw4y.BDR.m720p-flash.part3.rar
http://uploaded.net/file/7oms9vvr/C0nw4y.BDR.m720p-flash.part4.rar

Mixto - Uptobox, 1Fichier (Uploaded 100 MB Aproximadamente)




Código:
http://uptobox.com/tqwgpo50eca4
http://uptobox.com/saqcbrj6hsbt
http://uptobox.com/fsprzael6d9t
http://uploaded.net/file/7oms9vvr/C0nw4y.BDR.m720p-flash.part4.rar




Código:
https://1fichier.com/?9b699xgs4v
https://1fichier.com/?8ed1te6b4n
https://1fichier.com/?haxfecdlqs
http://uploaded.net/file/7oms9vvr/C0nw4y.BDR.m720p-flash.part4.rar