Resultados 1 al 2 de 2

Tema: Hércules V. Extendida (2014) [Micro HD720p] [Cast(Ac3 5.1)Eng(Ac3)]

  1. #1
    Pequeño Hacker Avatar de Mrsherlock
    Pais
    Colombia
    Bandera
    Ingreso
    Jun 2014
    Género
    Agradecer
    0
    Agrad. 33 veces en 30 posteos

    Video Hércules V. Extendida (2014) [Micro HD720p] [Cast(Ac3 5.1)Eng(Ac3)]






    Hércules, como todos los héroes griegos, es un semidios. Tras realizar los terribles doce trabajos que le fueron impuestos y tras perder a su familia, decide darle la espalda a los dioses y encontrar consuelo en la búsqueda de aventuras. Gracias a sus andanzas, ha encontrado hombres afines que se han unido a él, pues comparten su amor por el combate y no temen la presencia constante de la muerte en sus vidas. El rey de Tracia pretende que estos hombres formen un ejército invencible. Adaptación de la novela gráfica de 2008 "Hercules: The Thracian War"




    Título: Hércules
    Título original: Hercules
    País: USA
    Estreno en USA: 25/07/2014
    Estreno en España: 05/09/2014
    Productora: Paramount Pictures, MGM
    Director: Brett Ratner
    Guión: Ryan Condal, Evan Spiliotopoulos
    Reparto: Dwayne Johnson, Joseph Fiennes, Rebecca Ferguson, John Hurt, Ian McShane, Rufus Sewell, Robert Maillet, Irina Shayk, Ingrid Bolsø Berdal, Peter Mullan, Joe Anderson, Ian Whyte, Aksel Hennie, Reece Ritchie, Christopher Fairbank
    Calificación: No recomendada para menores de 12 años
    Género: Aventuras. Acción

    Formato: Matroska BDRip microHD 720p (Versión Extendida)
    Tamaño: 2.90 GiB
    Resolución: 1280x534
    Audio 1: AC3 5.1 640 Kbps Castellano (Fuente BLURAY)
    Audio 2: AC3 5.1 448 Kbps Inglés
    Subs: Español de España e Ingles. Forzados Español de España. Incluye también los comentarios del Director.
    Descomprimir: WinRar

    MEDIA INFO

    [spoiler]Format : Matroska
    Format version : Version 2
    File size : 2.89 GiB
    Duration : 1h 41mn
    Overall bit rate : 4 079 Kbps
    Movie name : H)rcules.BDRip.micro.720p.RD
    Encoded date : UTC 2014-11-29 01:30:00
    Writing application : mkvmerge v5.7.0 ('The Whirlwind') built on Jul 8 2012 20:08:51
    Writing library : libebml v1.2.3 + libmatroska v1.3.0

    Video
    ID : 1
    Format : AVC
    Format/Info : Advanced Video Codec
    Format profile : High@L4.1
    Format settings, CABAC : Yes
    Format settings, ReFrames : 12 frames
    Codec ID : V_MPEG4/ISO/AVC
    Duration : 1h 41mn
    Bit rate : 2 995 Kbps
    Width : 1 280 pixels
    Height : 534 pixels
    Display aspect ratio : 2.40:1
    Frame rate : 23.976 fps
    Color space : YUV
    Chroma subsampling : 4:2:0
    Bit depth : 8 bits
    Scan type : Progressive
    Bits/(Pixel*Frame) : 0.183
    Stream size : 2.07 GiB (71%)
    Writing library : x264 core 142 r2479 dd79a61
    Encoding settings : cabac=1 / ref=12 / deblock=1:-3:-3 / analyse=0x3:0x133 / me=umh / subme=10 / psy=1 / psy_rd=1.00:0.07 / mixed_ref=1 / me_range=64 / chroma_me=1 / trellis=2 / 8x8dct=1 / cqm=0 / deadzone=21,11 / fast_pskip=0 / chroma_qp_offset=-3 / threads=12 / lookahead_threads=3 / sliced_threads=0 / nr=0 / decimate=1 / interlaced=0 / bluray_compat=0 / constrained_intra=0 / bframes=16 / b_pyramid=2 / b_adapt=2 / b_bias=0 / direct=3 / weightb=1 / open_gop=0 / weightp=2 / keyint=240 / keyint_min=23 / scenecut=40 / intra_refresh=0 / rc_lookahead=240 / rc=2pass / mbtree=1 / bitrate=2995 / ratetol=1.0 / qcomp=0.60 / qpmin=0 / qpmax=69 / qpstep=4 / cplxblur=20.0 / qblur=0.5 / vbv_maxrate=40000 / vbv_bufsize=30000 / nal_hrd=none / filler=0 / ip_ratio=1.30 / aq=1:1.00
    Color primaries : BT.709-5, BT.1361, IEC 61966-2-4, SMPTE RP177
    Transfer characteristics : BT.709-5, BT.1361
    Matrix coefficients : BT.709-5, BT.1361, IEC 61966-2-4 709, SMPTE RP177

    Audio #1
    ID : 2
    Format : AC-3
    Format/Info : Audio Coding 3
    Mode extension : CM (complete main)
    Codec ID : A_AC3
    Duration : 1h 41mn
    Bit rate mode : Constant
    Bit rate : 640 Kbps
    Channel(s) : 6 channels
    Channel positions : Front: L C R, Side: L R, LFE
    Sampling rate : 48.0 KHz
    Bit depth : 16 bits
    Compression mode : Lossy
    Stream size : 465 MiB (16%)
    Language : Spanish

    Audio #2
    ID : 3
    Format : AC-3
    Format/Info : Audio Coding 3
    Mode extension : CM (complete main)
    Codec ID : A_AC3
    Duration : 1h 41mn
    Bit rate mode : Constant
    Bit rate : 448 Kbps
    Channel(s) : 6 channels
    Channel positions : Front: L C R, Side: L R, LFE
    Sampling rate : 48.0 KHz
    Bit depth : 16 bits
    Compression mode : Lossy
    Stream size : 326 MiB (11%)
    Language : English

    Text #1
    ID : 4
    Format : UTF-8
    Codec ID : S_TEXT/UTF8
    Codec ID/Info : UTF-8 Plain Text
    Title : Esp Forz
    Language : Spanish

    Text #2
    ID : 5
    Format : UTF-8
    Codec ID : S_TEXT/UTF8
    Codec ID/Info : UTF-8 Plain Text
    Title : Esp Completos
    Language : Spanish

    Text #3
    ID : 6
    Format : UTF-8
    Codec ID : S_TEXT/UTF8
    Codec ID/Info : UTF-8 Plain Text
    Language : English

    Text #4
    ID : 7
    Format : UTF-8
    Codec ID : S_TEXT/UTF8
    Codec ID/Info : UTF-8 Plain Text
    Title : SDH
    Language : English

    Text #5
    ID : 8
    Format : UTF-8
    Codec ID : S_TEXT/UTF8
    Codec ID/Info : UTF-8 Plain Text
    Title : Comentarios del Director
    Language : Spanish

    Menu
    00:00:00.000 : en:00:00:00.000
    00:08:10.782 : en:00:08:10.782
    00:14:15.813 : en:00:14:15.813
    00:23:38.250 : en:00:23:38.250
    00:31:23.757 : en:00:31:23.757
    00:41:12.136 : en:00:41:12.136
    00:51:34.341 : en:00:51:34.341
    00:57:31.281 : en:00:57:31.281
    01:05:57.620 : en:01:05:57.620
    01:16:07.855 : en:01:16:07.855
    01:24:28.897 : en:01:24:28.897
    01:34:24.701 : en:01:34:24.701
    [/spoiler]












    1 Link



    Código:
    http://uploaded.net/file/0qz9qkpv/H3rcul3s.V.Ext.BDR.m720.flash.rar

    Links Por Partes



    Código:
    http://uploaded.net/file/b6s5nexs/H3rcul3s.V.Ext.BDR.m720-flash.part1.rar
    http://uploaded.net/file/ub8tvxxc/H3rcul3s.V.Ext.BDR.m720-flash.part2.rar
    http://uploaded.net/file/r5xl87z7/H3rcul3s.V.Ext.BDR.m720-flash.part3.rar
    http://uploaded.net/file/h8f9v11p/H3rcul3s.V.Ext.BDR.m720-flash.part4.rar

    Mixto - Uptobox, 1Fichier (Uploaded 100 MB Aproximadamente)




    Código:
    http://uptobox.com/cw9orkq7yvj6
    http://uptobox.com/g7ebpltsv268
    http://uptobox.com/pa44ujzholwz
    http://uploaded.net/file/h8f9v11p/H3rcul3s.V.Ext.BDR.m720-flash.part4.rar




    Código:
    https://1fichier.com/?ihrjcao4bv
    https://1fichier.com/?4v8wnvcnam
    https://1fichier.com/?zxc0m1nwfp
    http://uploaded.net/file/h8f9v11p/H3rcul3s.V.Ext.BDR.m720-flash.part4.rar

  2. El siguiente usuario agradeció a Mrsherlock por este aporte:

    Baru (01 12 2014)

  3. #2
    Moderador Avatar de Baru
    Pais
    Tokelau
    Bandera
    Ingreso
    Jul 2011
    Ubicación
    ATOM
    Género
    Agradecer
    139
    Agrad. 135 veces en 107 posteos
    Muchas Gracias Por Tu Aporte.....

Etiquetas para este tema

Permisos de publicación

  • No puedes crear nuevos temas
  • No puedes responder temas
  • No puedes subir archivos adjuntos
  • No puedes editar tus mensajes
  •