En el transcurso de un solo día, la ciudad de Silverton es azotada por una serie de tornados sin precedentes. Toda la ciudad está a merced de ciclones erráticos y mortales, mientras que los cazadores de tormentas predicen que lo peor está aún por llegar. La mayoría de las personas buscan refugio, mientras que otras corren hace el vórtice, poniendo a prueba hasta dónde está dispuesto a llegar un cazador de tormentas para conseguir esa foto única que solo se hace una vez en la vida.
Contada a través de los ojos y de los objetivos fotográficos de cazadores profesionales de tormentas, aficionados en busca de emociones y valientes vecinos de la ciudad, "En el ojo de la tormenta" te lleva directamente al ojo de la tormenta para experimentar lo que ofrece la Madre Naturaleza en sus momentos más extremos.




Título: En el ojo de la tormenta
Título original: Into the Storm
País: USA
Estreno en USA: 08/08/2014
Estreno en España: 29/08/2014
Productora: New Line Cinema (Warner Bros. Pictures)
Director: Steven Quale
Guión: John Swetnam
Reparto: Sarah Wayne Callies, Richard Armitage, Jeremy Sumpter, Nathan Kress, Matt Walsh, Kyle Davis, Scott Lawrence, Arlen Escarpeta, Jon Reep, Alycia Debnam Carey, Max Deacon, Stephanie Koenig, Kim Adams, London Elise Moore, Brandon Ruiter
Calificación: No recomendada para menores de 12 años
Género: Acción | Catástrofes

Descomprimir: WinRar

MEDIA INFO

[spoiler]Format : Matroska
Format version : Version 4 / Version 2
File size : 2.52 GiB
Duration : 1h 29mn
Overall bit rate : 4 046 Kbps
Encoded date : UTC 2014-11-27 06:23:43
Writing application : mkvmerge v6.5.0 ('Isn't she lovely') built on Oct 20 2013 12:50:05
Writing library : libebml v1.3.0 + libmatroska v1.4.1

Video
ID : 1
Format : AVC
Format/Info : Advanced Video Codec
Format profile : High@L4.1
Format settings, CABAC : Yes
Format settings, ReFrames : 5 frames
Codec ID : V_MPEG4/ISO/AVC
Duration : 1h 29mn
Bit rate : 3 150 Kbps
Width : 1 280 pixels
Height : 720 pixels
Display aspect ratio : 16:9
Frame rate mode : Constant
Frame rate : 23.976 fps
Color space : YUV
Chroma subsampling : 4:2:0
Bit depth : 8 bits
Scan type : Progressive
Bits/(Pixel*Frame) : 0.143
Stream size : 1.91 GiB (76%)
Writing library : x264 core 142 r2431 ac76440
Encoding settings : cabac=1 / ref=5 / deblock=1:-3:-2 / analyse=0x3:0x133 / me=umh / subme=10 / psy=1 / psy_rd=1.00:0.00 / mixed_ref=1 / me_range=32 / chroma_me=1 / trellis=2 / 8x8dct=1 / cqm=0 / deadzone=21,11 / fast_pskip=1 / chroma_qp_offset=-1 / threads=6 / lookahead_threads=1 / sliced_threads=0 / nr=0 / decimate=1 / interlaced=0 / bluray_compat=0 / constrained_intra=0 / bframes=3 / b_pyramid=2 / b_adapt=2 / b_bias=0 / direct=3 / weightb=1 / open_gop=0 / weightp=2 / keyint=240 / keyint_min=22 / scenecut=45 / intra_refresh=0 / rc_lookahead=50 / rc=2pass / mbtree=1 / bitrate=3150 / ratetol=1.0 / qcomp=0.60 / qpmin=0 / qpmax=69 / qpstep=4 / cplxblur=20.0 / qblur=0.5 / vbv_maxrate=40000 / vbv_bufsize=30000 / nal_hrd=none / filler=0 / ip_ratio=1.40 / aq=1:1.00
Language : English
Default : Yes
Forced : No
Color primaries : BT.709
Transfer characteristics : BT.709
Matrix coefficients : BT.709

Audio #1
ID : 2
Format : AC-3
Format/Info : Audio Coding 3
Mode extension : CM (complete main)
Format settings, Endianness : Big
Codec ID : A_AC3
Duration : 1h 29mn
Bit rate mode : Constant
Bit rate : 448 Kbps
Channel count : 6 channels
Channel positions : Front: L C R, Side: L R, LFE
Sampling rate : 48.0 KHz
Bit depth : 16 bits
Compression mode : Lossy
Stream size : 286 MiB (11%)
Language : Spanish
Default : Yes
Forced : No

Audio #2
ID : 3
Format : AC-3
Format/Info : Audio Coding 3
Mode extension : CM (complete main)
Format settings, Endianness : Big
Codec ID : A_AC3
Duration : 1h 29mn
Bit rate mode : Constant
Bit rate : 448 Kbps
Channel count : 6 channels
Channel positions : Front: L C R, Side: L R, LFE
Sampling rate : 48.0 KHz
Bit depth : 16 bits
Compression mode : Lossy
Stream size : 286 MiB (11%)
Language : English
Default : No
Forced : No

Text #1
ID : 4
Format : UTF-8
Codec ID : S_TEXT/UTF8
Codec ID/Info : UTF-8 Plain Text
Title : Esp Forz
Language : Spanish
Default : Yes
Forced : No

Text #2
ID : 5
Format : UTF-8
Codec ID : S_TEXT/UTF8
Codec ID/Info : UTF-8 Plain Text
Title : Esp Comp
Language : Spanish
Default : No
Forced : No

Text #3
ID : 6
Format : UTF-8
Codec ID : S_TEXT/UTF8
Codec ID/Info : UTF-8 Plain Text
Title : Eng Comp
Language : English
Default : No
Forced : No

Menu
00:00:00.000 : en:00:00:00.000
00:09:37.202 : en:00:09:37.202
00:19:58.030 : en:00:19:58.030
00:29:52.249 : en:00:29:52.249
00:38:48.409 : en:00:38:48.409
00:47:59.085 : en:00:47:59.085
01:00:39.010 : en:01:00:39.010
01:08:59.510 : en:01:08:59.510
01:19:59.753 : en:01:19:59.753
01:23:58.700 : en:01:23:58.700[/spoiler]














1 Link



Código:
http://uploaded.net/file/vlx7jgwp/0j0.torm3nt4.BDR.m720p.flash.rar

Links Por Partes



Código:
http://uploaded.net/file/mzrdciik/0j0.torm3nt4.BDR.m720p-flash.part1.rar
http://uploaded.net/file/2nar8ppg/0j0.torm3nt4.BDR.m720p-flash.part2.rar
http://uploaded.net/file/nah6cprf/0j0.torm3nt4.BDR.m720p-flash.part3.rar
http://uploaded.net/file/mse7jo4y/0j0.torm3nt4.BDR.m720p-flash.part4.rar

Mixto - Uptobox, 1Fichier (Uploaded 100 MB Aproximadamente)




Código:
http://uptobox.com/tacr8snvqxvq
http://uptobox.com/2jfyubsu55d3
http://uptobox.com/jnkfq0ecjuld
http://uploaded.net/file/mse7jo4y/0j0.torm3nt4.BDR.m720p-flash.part4.rar




Código:
https://1fichier.com/?eusv2jfv8o
https://1fichier.com/?fl4wqkytge
https://1fichier.com/?sl0ydpicok
http://uploaded.net/file/mse7jo4y/0j0.torm3nt4.BDR.m720p-flash.part4.rar