La ciudad necesita héroes. La oscuridad se cierne sobre Nueva York desde que Shredder y su malvado "Clan del Pie" lo controlan todo con mano de hierro; desde la policía hasta los políticos. El futuro parece sombrío hasta que cuatro hermanos fuera de la ley surgen de las alcantarillas y descubren que su destino es ser las "Ninja Turtles". Las tortugas deberán colaborar con la intrépida periodista April O'Neil (Megan Fox) y su sarcástico operador de cámara Vern Fenwick (Will Arnett) para salvar a la ciudad y frustrar los diabólicos planes de Shredder.




Título: Ninja Turtles
Título original: Teenage Mutant Ninja Turtles
País: USA
Estreno en USA: 08/08/2014
Estreno en España: 17/10/2014
Productora: Paramount Pictures, Nickelodeon Movies, Platinum Dunes
Director: Jonathan Liebesman
Guión: Josh Appelbaum, Andrew Nemec, Art Marcum, Matt Holloway, John Fusco
Reparto: Megan Fox, Alan Ritchson, Noel Fisher, William Fichtner, Will Arnett, Whoopi Goldberg, Abby Elliott, Jeremy Howard, Danny Woodburn, Minae Noji, Pete Ploszek, Ami Sheth, K. Todd Freeman, Michelle Guo, Alexander Jameson
Calificación: No recomendada para menores de 7 años
Género: Ciencia ficción. Acción | Superhéroes. Cómic. Ninjas. 3-D

Formato: Matroska 1080p
Tamaño: 11.5 Gb
Resolución: 1920x800
Audio 1: AC3 5.1 640 Kbps Castellano
Audio 2: DTS 5.1 1510 kbps Ingles
Subs: Español e Ingles + Forzados
Descomprimir: WinRar

MEDIA INFO

[spoiler]Format : Matroska
Format version : Version 2
File size : 11.5 GiB
Duration : 1h 41mn
Overall bit rate : 16.3 Mbps
Encoded date : UTC 2014-11-27 09:11:42
Writing application : mkvmerge v5.3.0 ('I could have danced') built on Feb 9 2012 10:38:07
Writing library : libebml v1.2.3 + libmatroska v1.3.0

Video
ID : 1
Format : AVC
Format/Info : Advanced Video Codec
Format profile : High@L4.1
Format settings, CABAC : Yes
Format settings, ReFrames : 5 frames
Codec ID : V_MPEG4/ISO/AVC
Duration : 1h 41mn
Bit rate : 13.8 Mbps
Width : 1 920 pixels
Height : 800 pixels
Display aspect ratio : 2.40:1
Frame rate mode : Constant
Frame rate : 23.976 fps
Color space : YUV
Chroma subsampling : 4:2:0
Bit depth : 8 bits
Scan type : Progressive
Bits/(Pixel*Frame) : 0.375
Stream size : 9.76 GiB (85%)
Writing library : x264 core 142 r2491kMod 24e4fed
Encoding settings : cabac=1 / ref=5 / deblock=1:-3:-3 / analyse=0x3:0x133 / me=umh / subme=10 / psy=1 / fade_compensate=0.00 / psy_rd=1.03:0.00 / mixed_ref=1 / me_range=48 / chroma_me=1 / trellis=2 / 8x8dct=1 / cqm=0 / deadzone=21,11 / fast_pskip=0 / chroma_qp_offset=-2 / threads=18 / lookahead_threads=4 / sliced_threads=0 / nr=0 / decimate=1 / interlaced=0 / bluray_compat=0 / constrained_intra=0 / fgo=0 / bframes=10 / b_pyramid=2 / b_adapt=2 / b_bias=0 / direct=3 / weightb=1 / open_gop=0 / weightp=2 / keyint=250 / keyint_min=23 / scenecut=40 / intra_refresh=0 / rc_lookahead=40 / rc=crf / mbtree=0 / crf=19.5000 / qcomp=0.80 / qpmin=0 / qpmax=69 / qpstep=4 / vbv_maxrate=50000 / vbv_bufsize=62500 / crf_max=0.0 / nal_hrd=none / filler=0 / ip_ratio=1.20 / pb_ratio=1.10 / aq=1:0.80
Language : Spanish
Default : Yes
Forced : No

Audio #1
ID : 2
Format : AC-3
Format/Info : Audio Coding 3
Mode extension : CM (complete main)
Format settings, Endianness : Big
Codec ID : A_AC3
Duration : 1h 41mn
Bit rate mode : Constant
Bit rate : 640 Kbps
Channel(s) : 6 channels
Channel positions : Front: L C R, Side: L R, LFE
Sampling rate : 48.0 KHz
Bit depth : 16 bits
Compression mode : Lossy
Stream size : 464 MiB (4%)
Title : Castellano AC3 5.1
Language : Spanish
Default : Yes
Forced : Yes

Audio #2
ID : 3
Format : DTS
Format/Info : Digital Theater Systems
Mode : 16
Format settings, Endianness : Big
Codec ID : A_DTS
Duration : 1h 41mn
Bit rate mode : Constant
Bit rate : 1 510 Kbps
Channel(s) : 6 channels
Channel positions : Front: L C R, Side: L R, LFE
Sampling rate : 48.0 KHz
Bit depth : 24 bits
Compression mode : Lossy
Stream size : 1.07 GiB (9%)
Language : English
Default : No
Forced : No

Text #1
ID : 4
Format : UTF-8
Codec ID : S_TEXT/UTF8
Codec ID/Info : UTF-8 Plain Text
Title : Forzados.
Language : Spanish
Default : Yes
Forced : Yes

Text #2
ID : 5
Format : UTF-8
Codec ID : S_TEXT/UTF8
Codec ID/Info : UTF-8 Plain Text
Title : Forced
Language : English
Default : No
Forced : No

Text #3
ID : 6
Format : UTF-8
Codec ID : S_TEXT/UTF8
Codec ID/Info : UTF-8 Plain Text
Title : Completos.
Language : Spanish
Default : No
Forced : No

Text #4
ID : 7
Format : UTF-8
Codec ID : S_TEXT/UTF8
Codec ID/Info : UTF-8 Plain Text
Title : Completos.
Language : English
Default : No
Forced : No

Menu
00:00:00.000 : en:00:00:00.000
00:02:42.287 : en:00:02:42.287
00:06:00.485 : en:00:06:00.485
00:11:51.544 : en:00:11:51.544
00:16:01.836 : en:00:16:01.836
00:22:02.947 : en:00:22:02.947
00:28:22.784 : en:00:28:22.784
00:34:01.831 : en:00:34:01.831
00:38:04.032 : en:00:38:04.032
00:42:10.111 : en:00:42:10.111
00:48:36.413 : en:00:48:36.413
00:55:46.093 : en:00:55:46.093
01:00:44.266 : en:01:00:44.266
01:07:46.604 : en:01:07:46.604
01:15:30.359 : en:01:15:30.359
01:24:10.796 : en:01:24:10.796
01:30:17.037 : en:01:30:17.037
01:34:13.565 : en:01:34:13.565[/spoiler]














Links Por Partes



Código:
http://uploaded.net/file/vyukd9ta/T0rtug4s.N1nj4.BDR.HD1080p.flash.part01.rar
http://uploaded.net/file/rz3rnxam/T0rtug4s.N1nj4.BDR.HD1080p.flash.part02.rar
http://uploaded.net/file/43gv4yzs/T0rtug4s.N1nj4.BDR.HD1080p.flash.part03.rar
http://uploaded.net/file/ix9bozzg/T0rtug4s.N1nj4.BDR.HD1080p.flash.part04.rar
http://uploaded.net/file/6eobvnn6/T0rtug4s.N1nj4.BDR.HD1080p.flash.part05.rar
http://uploaded.net/file/uepubmna/T0rtug4s.N1nj4.BDR.HD1080p.flash.part06.rar
http://uploaded.net/file/8cmg8gk5/T0rtug4s.N1nj4.BDR.HD1080p.flash.part07.rar
http://uploaded.net/file/ja7vl8tx/T0rtug4s.N1nj4.BDR.HD1080p.flash.part08.rar
http://uploaded.net/file/vp5dgmzb/T0rtug4s.N1nj4.BDR.HD1080p.flash.part09.rar
http://uploaded.net/file/yirjveep/T0rtug4s.N1nj4.BDR.HD1080p.flash.part10.rar
http://uploaded.net/file/0bjm3941/T0rtug4s.N1nj4.BDR.HD1080p.flash.part11.rar
http://uploaded.net/file/vj72ikai/T0rtug4s.N1nj4.BDR.HD1080p.flash.part12.rar
http://uploaded.net/file/sin5rbkl/T0rtug4s.N1nj4.BDR.HD1080p.flash.part13.rar
http://uploaded.net/file/wq3q7a7n/T0rtug4s.N1nj4.BDR.HD1080p.flash.part14.rar

Mixto - Uptobox, 1Fichier (Uploaded 100 MB Aproximadamente)




Código:
http://uptobox.com/nmlqbyl1wpwk
http://uptobox.com/i2s5ls2vb7yg
http://uptobox.com/jdkwsnte21a7
http://uptobox.com/ejia869c34ie
http://uptobox.com/k28fxql5n85d
http://uptobox.com/36t236ddgf9u
http://uptobox.com/qe2dq8ge4z00
http://uptobox.com/t7xkop7a7l3k
http://uptobox.com/u872orx1ib56
http://uptobox.com/ippzjnrdoukc
http://uptobox.com/gcmnrvxcvvfz
http://uptobox.com/rix9d03u3gn6
http://uptobox.com/f6ueqd29r4x0
http://uploaded.net/file/wq3q7a7n/T0rtug4s.N1nj4.BDR.HD1080p.flash.part14.rar




Código:
https://1fichier.com/?nqlzkgffa3
https://1fichier.com/?dw01jztgjj
https://1fichier.com/?mue3twd3of
https://1fichier.com/?8o4r3m4735
https://1fichier.com/?61v6k75du6
https://1fichier.com/?ts5m1pn4n5
https://1fichier.com/?j28wct6umg
https://1fichier.com/?k4n2pye4pc
https://1fichier.com/?gx0bdukqx7
https://1fichier.com/?q3utqy1m2i
https://1fichier.com/?fb0v5w783m
https://1fichier.com/?p98ub7vpih
https://1fichier.com/?r4ghnzc1xh
http://uploaded.net/file/wq3q7a7n/T0rtug4s.N1nj4.BDR.HD1080p.flash.part14.rar