La ciudad necesita héroes. La oscuridad se cierne sobre Nueva York desde que Shredder y su malvado "Clan del Pie" lo controlan todo con mano de hierro; desde la policía hasta los políticos. El futuro parece sombrío hasta que cuatro hermanos fuera de la ley surgen de las alcantarillas y descubren que su destino es ser las "Ninja Turtles". Las tortugas deberán colaborar con la intrépida periodista April O'Neil (Megan Fox) y su sarcástico operador de cámara Vern Fenwick (Will Arnett) para salvar a la ciudad y frustrar los diabólicos planes de Shredder.




Título: Ninja Turtles
Título original: Teenage Mutant Ninja Turtles
País: USA
Estreno en USA: 08/08/2014
Estreno en España: 17/10/2014
Productora: Paramount Pictures, Nickelodeon Movies, Platinum Dunes
Director: Jonathan Liebesman
Guión: Josh Appelbaum, Andrew Nemec, Art Marcum, Matt Holloway, John Fusco
Reparto: Megan Fox, Alan Ritchson, Noel Fisher, William Fichtner, Will Arnett, Whoopi Goldberg, Abby Elliott, Jeremy Howard, Danny Woodburn, Minae Noji, Pete Ploszek, Ami Sheth, K. Todd Freeman, Michelle Guo, Alexander Jameson
Calificación: No recomendada para menores de 7 años
Género: Ciencia ficción. Acción | Superhéroes. Cómic. Ninjas. 3-D

Formato: Matroska m720p
Tamaño: 2.96 GB
Resolución: 1280x536
Audio 1: AC3 5.1 640 Kbps Castellano
Audio 2: AC3 5.1 448 kbps Ingles
Subs: Español e Ingles + Forzados
Descomprimir: WinRar

MEDIA INFO

[spoiler]Format : Matroska
Format version : Version 2
File size : 2.96 GiB
Duration : 1h 41mn
Overall bit rate : 4 188 Kbps
Encoded date : UTC 2014-11-27 09:09:56
Writing application : mkvmerge v5.3.0 ('I could have danced') built on Feb 9 2012 10:38:07
Writing library : libebml v1.2.3 + libmatroska v1.3.0

Video
ID : 1
Format : AVC
Format/Info : Advanced Video Codec
Format profile : High@L4.1
Format settings, CABAC : Yes
Format settings, ReFrames : 5 frames
Codec ID : V_MPEG4/ISO/AVC
Duration : 1h 41mn
Bit rate : 3 100 Kbps
Width : 1 280 pixels
Height : 536 pixels
Display aspect ratio : 2.40:1
Frame rate mode : Constant
Frame rate : 23.976 fps
Color space : YUV
Chroma subsampling : 4:2:0
Bit depth : 8 bits
Scan type : Progressive
Bits/(Pixel*Frame) : 0.188
Stream size : 2.13 GiB (72%)
Writing library : x264 core 142 r2491 24e4fed
Encoding settings : cabac=1 / ref=5 / deblock=1:-3:-2 / analyse=0x3:0x133 / me=umh / subme=10 / psy=1 / psy_rd=1.00:0.00 / mixed_ref=1 / me_range=32 / chroma_me=1 / trellis=2 / 8x8dct=1 / cqm=0 / deadzone=21,11 / fast_pskip=1 / chroma_qp_offset=-2 / threads=6 / lookahead_threads=1 / sliced_threads=0 / nr=0 / decimate=1 / interlaced=0 / bluray_compat=0 / constrained_intra=0 / bframes=3 / b_pyramid=2 / b_adapt=2 / b_bias=0 / direct=3 / weightb=1 / open_gop=0 / weightp=2 / keyint=240 / keyint_min=22 / scenecut=45 / intra_refresh=0 / rc_lookahead=50 / rc=2pass / mbtree=1 / bitrate=3100 / ratetol=1.5 / qcomp=0.60 / qpmin=0 / qpmax=69 / qpstep=6 / cplxblur=20.0 / qblur=0.5 / vbv_maxrate=30000 / vbv_bufsize=40000 / nal_hrd=none / filler=0 / ip_ratio=1.40 / aq=1:1.00
Language : Spanish
Default : Yes
Forced : No
Color primaries : BT.709
Transfer characteristics : BT.709
Matrix coefficients : BT.709

Audio #1
ID : 2
Format : AC-3
Format/Info : Audio Coding 3
Mode extension : CM (complete main)
Format settings, Endianness : Big
Codec ID : A_AC3
Duration : 1h 41mn
Bit rate mode : Constant
Bit rate : 640 Kbps
Channel(s) : 6 channels
Channel positions : Front: L C R, Side: L R, LFE
Sampling rate : 48.0 KHz
Bit depth : 16 bits
Compression mode : Lossy
Stream size : 464 MiB (15%)
Title : Castellano AC3 5.1
Language : Spanish
Default : Yes
Forced : Yes

Audio #2
ID : 3
Format : AC-3
Format/Info : Audio Coding 3
Mode extension : CM (complete main)
Format settings, Endianness : Big
Codec ID : A_AC3
Duration : 1h 41mn
Bit rate mode : Constant
Bit rate : 448 Kbps
Channel(s) : 6 channels
Channel positions : Front: L C R, Side: L R, LFE
Sampling rate : 48.0 KHz
Bit depth : 16 bits
Compression mode : Lossy
Stream size : 325 MiB (11%)
Language : English
Default : No
Forced : No

Text #1
ID : 4
Format : UTF-8
Codec ID : S_TEXT/UTF8
Codec ID/Info : UTF-8 Plain Text
Title : Forzados.
Language : Spanish
Default : Yes
Forced : Yes

Text #2
ID : 5
Format : UTF-8
Codec ID : S_TEXT/UTF8
Codec ID/Info : UTF-8 Plain Text
Title : Forced
Language : English
Default : No
Forced : No

Text #3
ID : 6
Format : UTF-8
Codec ID : S_TEXT/UTF8
Codec ID/Info : UTF-8 Plain Text
Title : Completos.
Language : Spanish
Default : No
Forced : No

Text #4
ID : 7
Format : UTF-8
Codec ID : S_TEXT/UTF8
Codec ID/Info : UTF-8 Plain Text
Title : Completos.
Language : English
Default : No
Forced : No

Menu
00:00:00.000 : en:00:00:00.000
00:02:42.287 : en:00:02:42.287
00:06:00.485 : en:00:06:00.485
00:11:51.544 : en:00:11:51.544
00:16:01.836 : en:00:16:01.836
00:22:02.947 : en:00:22:02.947
00:28:22.784 : en:00:28:22.784
00:34:01.831 : en:00:34:01.831
00:38:04.032 : en:00:38:04.032
00:42:10.111 : en:00:42:10.111
00:48:36.413 : en:00:48:36.413
00:55:46.093 : en:00:55:46.093
01:00:44.266 : en:01:00:44.266
01:07:46.604 : en:01:07:46.604
01:15:30.359 : en:01:15:30.359
01:24:10.796 : en:01:24:10.796
01:30:17.037 : en:01:30:17.037
01:34:13.565 : en:01:34:13.565[/spoiler]












1 Link



Código:
http://uploaded.net/file/eeg6kgps/T0rtug4s.N1nj4.BDR.m720p.flash.rar

Links Por Partes



Código:
http://uploaded.net/file/giz7at55/T0rtug4s.N1nj4.BDR.m720p-flash.part1.rar
http://uploaded.net/file/rtqe09ba/T0rtug4s.N1nj4.BDR.m720p-flash.part2.rar
http://uploaded.net/file/qllz0roy/T0rtug4s.N1nj4.BDR.m720p-flash.part3.rar
http://uploaded.net/file/94rorx72/T0rtug4s.N1nj4.BDR.m720p-flash.part4.rar

Mixto - Uptobox, 1Fichier (Uploaded 100 MB Aproximadamente)




Código:
http://uptobox.com/ebfkz43q6jp0
http://uptobox.com/cv2ecjxpkw7w
http://uptobox.com/6bie3m365pcc
http://uploaded.net/file/94rorx72/T0rtug4s.N1nj4.BDR.m720p-flash.part4.rar




Código:
https://1fichier.com/?w0tf3h5u1g
https://1fichier.com/?ruphjmqbhl
https://1fichier.com/?0o1nvsudh5
http://uploaded.net/file/94rorx72/T0rtug4s.N1nj4.BDR.m720p-flash.part4.rar