La nueva película de Marvel, 'Guardianes de la galaxia' es una aventura espacial de proporciones épicas y llena de acción que amplía el Universo Cinematográfico de Marvel dentro del cosmos. En esta ocasión, el temerario aventurero Peter Quill es objeto de un implacable cazarrecompensas después de robar una misteriosa esfera codiciada por Ronan, un poderoso villano cuya ambición amenaza todo el universo. Para poder escapar del incansable Ronan, Quill se ve obligado a pactar una complicada tregua con un cuarteto de inadaptados: Rocket, un mapache armado con un rifle, Groot, un humanoide con forma de árbol, la letal y enigmática Gamora y el vengativo Drax the Destroyer. Pero cuando Quill descubre el verdadero poder de la esfera, deberá hacer todo lo posible para derrotar a sus extravagantes rivales en un intento desesperado de salvar el destino de la galaxia.




Título: Guardianes de la Galaxia
Título original: Guardians of the Galaxy
País: USA
Estreno en USA: 01/08/2014
Estreno en España: 14/08/2014
Productora: Walt Disney Pictures, Marvel Studios
Director: James Gunn
Guión: Nicole Perlman, Chris McCoy, James Gunn
Reparto: Chris Pratt, Zoe Saldana, Dave Bautista, Lee Pace, Michael Rooker, Karen Gillan, Djimon Hounsou, Benicio del Toro, John C. Reilly, Glenn Close, Vin Diesel, Gregg Henry, Bradley Cooper, Josh Brolin
Calificación: No recomendada para menores de 12 años
Género: Ciencia ficción. Acción. Aventuras. Comedia | Aventura espacial. Superhéroes. Cómic. Marvel Comics. 3-D

Formato: Matroska BDRip microHD 1080p
Tamaño: 4.85 GiB
Resolución: 1920x800
Audio 1: AC3 5.1 448 Kbps Castellano.
Audio 2: AC3 5.1 448 Kbps Inglés.
Subs: Español e Ingles. Español forzados.
Descomprimir: WinRar

MEDIA INFO

[spoiler]Format : Matroska
Format version : Version 4 / Version 2
File size : 4.85 GiB
Duration : 2h 0mn
Overall bit rate : 5 748 Kbps
Movie name : Guardians of the Galaxy (2014)
Encoded date : UTC 2014-11-27 01:22:14
Writing application : mkvmerge v6.5.0 ('Isn't she lovely') built on Oct 20 2013 12:50:05
Writing library : libebml v1.3.0 + libmatroska v1.4.1

Video
ID : 1
Format : AVC
Format/Info : Advanced Video Codec
Format profile : Main@L4.1
Format settings, CABAC : Yes
Format settings, ReFrames : 4 frames
Codec ID : V_MPEG4/ISO/AVC
Duration : 2h 0mn
Bit rate : 4 850 Kbps
Width : 1 920 pixels
Height : 800 pixels
Display aspect ratio : 2.40:1
Frame rate mode : Constant
Frame rate : 23.976 fps
Color space : YUV
Chroma subsampling : 4:2:0
Bit depth : 8 bits
Scan type : Progressive
Bits/(Pixel*Frame) : 0.132
Stream size : 4.00 GiB (82%)
Writing library : x264 core 142 r2479 dd79a61
Encoding settings : cabac=1 / ref=1 / deblock=1:0:0 / analyse=0x1:0x111 / me=hex / subme=2 / psy=1 / psy_rd=1.00:0.00 / mixed_ref=0 / me_range=16 / chroma_me=1 / trellis=0 / 8x8dct=0 / cqm=0 / deadzone=21,11 / fast_pskip=1 / chroma_qp_offset=0 / threads=12 / lookahead_threads=4 / sliced_threads=0 / nr=0 / decimate=1 / interlaced=0 / bluray_compat=0 / constrained_intra=0 / bframes=3 / b_pyramid=2 / b_adapt=1 / b_bias=0 / direct=1 / weightb=1 / open_gop=0 / weightp=1 / keyint=240 / keyint_min=24 / scenecut=40 / intra_refresh=0 / rc_lookahead=10 / rc=2pass / mbtree=1 / bitrate=4850 / ratetol=1.0 / qcomp=0.60 / qpmin=0 / qpmax=69 / qpstep=4 / cplxblur=20.0 / qblur=0.5 / vbv_maxrate=50000 / vbv_bufsize=62500 / nal_hrd=none / filler=0 / ip_ratio=1.40 / aq=1:1.00
Default : Yes
Forced : No
Color primaries : BT.709
Transfer characteristics : BT.709
Matrix coefficients : BT.709

Audio #1
ID : 2
Format : AC-3
Format/Info : Audio Coding 3
Mode extension : CM (complete main)
Format settings, Endianness : Big
Codec ID : A_AC3
Duration : 2h 0mn
Bit rate mode : Constant
Bit rate : 448 Kbps
Channel count : 6 channels
Channel positions : Front: L C R, Side: L R, LFE
Sampling rate : 48.0 KHz
Bit depth : 16 bits
Compression mode : Lossy
Delay relative to video : -83ms
Stream size : 387 MiB (8%)
Language : Spanish
Default : Yes
Forced : No

Audio #2
ID : 3
Format : AC-3
Format/Info : Audio Coding 3
Mode extension : CM (complete main)
Format settings, Endianness : Big
Codec ID : A_AC3
Duration : 2h 0mn
Bit rate mode : Constant
Bit rate : 448 Kbps
Channel count : 6 channels
Channel positions : Front: L C R, Side: L R, LFE
Sampling rate : 48.0 KHz
Bit depth : 16 bits
Compression mode : Lossy
Delay relative to video : -83ms
Stream size : 387 MiB (8%)
Language : English
Default : No
Forced : No

Text #1
ID : 4
Format : UTF-8
Codec ID : S_TEXT/UTF8
Codec ID/Info : UTF-8 Plain Text
Title : Forz Esp
Language : Spanish
Default : No
Forced : No

Text #2
ID : 5
Format : UTF-8
Codec ID : S_TEXT/UTF8
Codec ID/Info : UTF-8 Plain Text
Title : Comp Esp
Language : Spanish
Default : No
Forced : No

Text #3
ID : 6
Format : UTF-8
Codec ID : S_TEXT/UTF8
Codec ID/Info : UTF-8 Plain Text
Language : English
Default : No
Forced : No

Text #4
ID : 7
Format : UTF-8
Codec ID : S_TEXT/UTF8
Codec ID/Info : UTF-8 Plain Text
Title : SDH
Language : English
Default : No
Forced : No

Menu
00:00:00.000 : :00:00:00.000
00:04:05.704 : :00:04:05.704
00:11:21.806 : :00:11:21.806
00:15:21.712 : :00:15:21.712
00:20:54.420 : :00:20:54.420
00:27:11.213 : :00:27:11.213
00:33:58.828 : :00:33:58.828
00:44:28.291 : :00:44:28.291
00:50:53.008 : :00:50:53.008
00:55:17.564 : :00:55:17.564
00:59:45.207 : :00:59:45.207
01:06:06.921 : :01:06:06.921
01:14:46.023 : :01:14:46.023
01:22:20.644 : :01:22:20.644
01:26:29.726 : :01:26:29.726
01:30:23.877 : :01:30:23.877
01:35:58.378 : :01:35:58.378
01:40:46.749 : :01:40:46.749
01:47:35.366 : :01:47:35.366
01:53:16.623 : :01:53:16.623
02:00:10.829 : :02:00:10.829[/spoiler]














1 Link



Código:
http://uploaded.net/file/x1wpv0ur/Gu4rdi4n3s.G4laxy.BDR.m1080.flash.rar

Links Por Partes



Código:
http://uploaded.net/file/tz4jwkxm/Gu4rdi4n3s.G4laxy.BDR.m1080-flash.part1.rar
http://uploaded.net/file/ic7o295u/Gu4rdi4n3s.G4laxy.BDR.m1080-flash.part2.rar
http://uploaded.net/file/geee57jx/Gu4rdi4n3s.G4laxy.BDR.m1080-flash.part3.rar
http://uploaded.net/file/kooqkfsk/Gu4rdi4n3s.G4laxy.BDR.m1080-flash.part4.rar
http://uploaded.net/file/zj2sqmyp/Gu4rdi4n3s.G4laxy.BDR.m1080-flash.part5.rar
http://uploaded.net/file/42s3gnb3/Gu4rdi4n3s.G4laxy.BDR.m1080-flash.part6.rar

Mixto - Uptobox, 1Fichier (Uploaded 100 MB Aproximadamente)




Código:
http://uptobox.com/op3zz1xbmp3s
http://uptobox.com/unpc8jji4ead
http://uptobox.com/ezs5h44e6t2e
http://uptobox.com/bumnbv3an77r
http://uptobox.com/jtzqswcavkb2
http://uploaded.net/file/42s3gnb3/Gu4rdi4n3s.G4laxy.BDR.m1080-flash.part6.rar




Código:
https://1fichier.com/?3cgpgln8m5
https://1fichier.com/?wfe013sa4h
https://1fichier.com/?hsg7fs1rx5
https://1fichier.com/?5hnfwawfjz
https://1fichier.com/?sv92su9lw9
http://uploaded.net/file/42s3gnb3/Gu4rdi4n3s.G4laxy.BDR.m1080-flash.part6.rar