Como a la mayoría de las adolescentes, a Rose y a Lissa les gustan los chicos, van de compras al centro comercial y se sienten incomprendidas. Pero entre ellas y las demás hay una gran diferencia: son vampiresas. Lissa es una princesa que desciende de la dinastía Moroi, y Rose es la guardiana encargada de protegerla. Tras escapar de la Academia St. Vladimir, son obligadas a volver, y Rose queda bajo el estricto control de su estoico mentor, Dmitri, pero pronto se dará cuenta de que se siente atraída por él. Mientras tanto, Lissa lucha se ve obligada a afrontar terribles peligros.




Título original: Vampire Academy: Blood Sisters
Año: 2014
Duración: 104 min.
País: Estados Unidos
Director: Mark S. Waters (AKA Mark Waters)
Guión: Daniel Waters (Novela: Richelle Mead)
Música: Rolfe Kent
Fotografía: Tony Pierce-Roberts
Reparto: Zoey Deutch, Lucy Fry, Danila Kozlovsky, Gabriel Byrne, Dominic Sherwood, Olga Kurylenko, Sarah Hyland, Cameron Monaghan, Sami Gayle, Ashley Charles, Claire Foy, Joely Richardson, Dominique Tipper, Edward Holcroft, Bronté Norman-Terrell
Productora: Angry Films / Kintop Pictures / Preger Entertainment
Género: Fantástico. Acción. Comedia. Terror. Intriga | Vampiros. Amistad. Adolescencia. Colegios & Universidad. Magia

Descomprimir: WinRar

MEDIA INFO

[spoiler]Format : Matroska
Format version : Version 2
File size : 2.73 GiB
Duration : 1h 44mn
Overall bit rate : 3 750 Kbps
Encoded date : UTC 2014-11-26 23:31:45
Writing application : mkvmerge v5.7.0 ('The Whirlwind') built on Jul 8 2012 20:08:51
Writing library : libebml v1.2.3 + libmatroska v1.3.0

Video
ID : 1
Format : AVC
Format/Info : Advanced Video Codec
Format profile : High@L4.1
Format settings, CABAC : Yes
Format settings, ReFrames : 2 frames
Format settings, GOP : M=3, N=24
Muxing mode : Header stripping
Codec ID : V_MPEG4/ISO/AVC
Duration : 1h 44mn
Bit rate : 2 972 Kbps
Width : 1 280 pixels
Height : 532 pixels
Display aspect ratio : 2.40:1
Frame rate : 23.976 fps
Color space : YUV
Chroma subsampling : 4:2:0
Bit depth : 8 bits
Scan type : Progressive
Bits/(Pixel*Frame) : 0.182
Stream size : 2.07 GiB (76%)
Writing library : x264 core 142
Encoding settings : cabac=1 / ref=1 / deblock=1:-1:-1 / analyse=0x3:0 / me=hex / subme=5 / psy=0 / mixed_ref=0 / me_range=16 / chroma_me=1 / trellis=0 / 8x8dct=1 / cqm=0 / deadzone=21,11 / fast_pskip=1 / chroma_qp_offset=0 / threads=16 / lookahead_threads=4 / sliced_threads=0 / nr=0 / decimate=1 / interlaced=0 / bluray_compat=0 / constrained_intra=0 / bframes=2 / b_pyramid=0 / b_adapt=1 / b_bias=0 / direct=1 / weightb=1 / open_gop=0 / weightp=0 / keyint=24 / keyint_min=13 / scenecut=40 / intra_refresh=0 / rc=abr / mbtree=0 / bitrate=2972 / ratetol=1.0 / qcomp=0.60 / qpmin=0 / qpmax=69 / qpstep=4 / ip_ratio=1.40 / pb_ratio=1.30 / aq=1:1.00
Color primaries : BT.709-5, BT.1361, IEC 61966-2-4, SMPTE RP177
Transfer characteristics : BT.709-5, BT.1361
Matrix coefficients : BT.709-5, BT.1361, IEC 61966-2-4 709, SMPTE RP177

Audio #1
ID : 2
Format : AC-3
Format/Info : Audio Coding 3
Mode extension : CM (complete main)
Muxing mode : Header stripping
Codec ID : A_AC3
Duration : 1h 44mn
Bit rate mode : Constant
Bit rate : 448 Kbps
Channel(s) : 6 channels
Channel positions : Front: L C R, Side: L R, LFE
Sampling rate : 48.0 KHz
Bit depth : 16 bits
Compression mode : Lossy
Stream size : 335 MiB (12%)
Language : Spanish

Audio #2
ID : 3
Format : AC-3
Format/Info : Audio Coding 3
Mode extension : CM (complete main)
Muxing mode : Header stripping
Codec ID : A_AC3
Duration : 1h 44mn
Bit rate mode : Constant
Bit rate : 384 Kbps
Channel(s) : 6 channels
Channel positions : Front: L C R, Side: L R, LFE
Sampling rate : 48.0 KHz
Bit depth : 16 bits
Compression mode : Lossy
Stream size : 287 MiB (10%)
Language : English

Text #1
ID : 4
Format : UTF-8
Codec ID : S_TEXT/UTF8
Codec ID/Info : UTF-8 Plain Text
Language : Spanish

Text #2
ID : 5
Format : UTF-8
Codec ID : S_TEXT/UTF8
Codec ID/Info : UTF-8 Plain Text
Language : English

Menu
00:00:00.000 : en:00:00:00.000
00:06:11.913 : en:00:06:11.913
00:13:48.661 : en:00:13:48.661
00:19:34.590 : en:00:19:34.590
00:26:25.834 : en:00:26:25.834
00:33:07.652 : en:00:33:07.652
00:39:47.760 : en:00:39:47.760
00:46:29.120 : en:00:46:29.120
00:51:45.853 : en:00:51:45.853
00:56:13.579 : en:00:56:13.579
01:01:42.324 : en:01:01:42.324
01:07:31.005 : en:01:07:31.005
01:13:32.533 : en:01:13:32.533
01:21:50.072 : en:01:21:50.072
01:30:11.781 : en:01:30:11.781
01:36:05.677 : en:01:36:05.677
[/spoiler]














1 Link



Código:
http://uploaded.net/file/aarcrjge/V4mp1r3.Ac4d3my.BDR.m.720p.flash.rar

Links Por Partes



Código:
http://uploaded.net/file/ince1kjb/V4mp1r3.Ac4d3my.BDR.m.720p-flash.part1.rar
http://uploaded.net/file/p60eynzh/V4mp1r3.Ac4d3my.BDR.m.720p-flash.part2.rar
http://uploaded.net/file/821kxk84/V4mp1r3.Ac4d3my.BDR.m.720p-flash.part3.rar
http://uploaded.net/file/8kj5rq3k/V4mp1r3.Ac4d3my.BDR.m.720p-flash.part4.rar

Mixto - Uptobox, 1Fichier (Uploaded 100 MB Aproximadamente)




Código:
http://uptobox.com/mhizqx7xbfsx
http://uptobox.com/0xo9emb7ikff
http://uptobox.com/q8gpd4wu4u77
http://uploaded.net/file/8kj5rq3k/V4mp1r3.Ac4d3my.BDR.m.720p-flash.part4.rar




Código:
https://1fichier.com/?4pxzmwh3tz
https://1fichier.com/?85nznsp5og
https://1fichier.com/?lr964hgq4v
http://uploaded.net/file/8kj5rq3k/V4mp1r3.Ac4d3my.BDR.m.720p-flash.part4.rar