Un agente temporal del gobierno (Hawke) tendrá que realizar una compleja serie de viajes en el tiempo con el fin de detener a futuros asesinos.




Título original: Predestination
País: Australia
Estreno en USA: 09/01/2015
Estreno en España:
Lanzamiento en DVD (alquiler): 28/11/2014
Estreno en Australia: 28/08/2014
Productora: Blacklab Entertainment, Screen Australia, Wolfhound Pictures
Director: Michael Spierig, Peter Spierig
Guión: Michael Spierig, Peter Spierig
Reparto: Ethan Hawke, Sarah Snook, Noah Taylor, Madeleine West, Christopher Kirby, Jim Knobeloch, Freya Stafford
Género: Ciencia ficción. Thriller | Viajes en el tiempo

Formato: Matroska 1080p
Tamaño: 8.22 Gb
Resolución: 1920x800
Audio 1: AC3 5.1 448 Kbps Castellano
Audio 2: AC3 5.1 1509 kbps Ingles
Subs: Español e Ingles + Forzados
Descomprimir: WinRar

MEDIA INFO

[spoiler]Format : Matroska
Format version : Version 2
File size : 8.22 GiB
Duration : 1h 37mn
Overall bit rate : 12.0 Mbps
Encoded date : UTC 2014-11-26 15:03:42
Writing application : mkvmerge v5.3.0 ('I could have danced') built on Feb 9 2012 10:38:07
Writing library : libebml v1.2.3 + libmatroska v1.3.0

Video
ID : 1
Format : AVC
Format/Info : Advanced Video Codec
Format profile : High@L4.1
Format settings, CABAC : Yes
Format settings, ReFrames : 5 frames
Codec ID : V_MPEG4/ISO/AVC
Duration : 1h 37mn
Bit rate : 10.1 Mbps
Width : 1 920 pixels
Height : 800 pixels
Display aspect ratio : 2.40:1
Frame rate mode : Constant
Frame rate : 23.976 fps
Color space : YUV
Chroma subsampling : 4:2:0
Bit depth : 8 bits
Scan type : Progressive
Bits/(Pixel*Frame) : 0.274
Stream size : 6.72 GiB (82%)
Writing library : x264 core 142 r2431 ac76440
Encoding settings : cabac=1 / ref=5 / deblock=1:-3:-3 / analyse=0x3:0x113 / me=umh / subme=10 / psy=1 / psy_rd=1.00:0.05 / mixed_ref=1 / me_range=32 / chroma_me=1 / trellis=2 / 8x8dct=1 / cqm=0 / deadzone=21,11 / fast_pskip=0 / chroma_qp_offset=-2 / threads=18 / lookahead_threads=1 / sliced_threads=0 / nr=0 / decimate=1 / interlaced=0 / bluray_compat=0 / constrained_intra=0 / bframes=4 / b_pyramid=2 / b_adapt=2 / b_bias=0 / direct=3 / weightb=1 / open_gop=0 / weightp=2 / keyint=250 / keyint_min=23 / scenecut=40 / intra_refresh=0 / rc=2pass / mbtree=0 / bitrate=10082 / ratetol=1.0 / qcomp=0.70 / qpmin=0 / qpmax=69 / qpstep=4 / cplxblur=20.0 / qblur=0.5 / ip_ratio=1.40 / pb_ratio=1.30 / aq=2:1.00
Language : Spanish
Default : Yes
Forced : No

Audio #1
ID : 2
Format : AC-3
Format/Info : Audio Coding 3
Mode extension : CM (complete main)
Format settings, Endianness : Big
Codec ID : A_AC3
Duration : 1h 37mn
Bit rate mode : Constant
Bit rate : 448 Kbps
Channel(s) : 6 channels
Channel positions : Front: L C R, Side: L R, LFE
Sampling rate : 48.0 KHz
Bit depth : 16 bits
Compression mode : Lossy
Stream size : 313 MiB (4%)
Language : Spanish
Default : Yes
Forced : Yes

Audio #2
ID : 3
Format : DTS
Format/Info : Digital Theater Systems
Mode : 16
Format settings, Endianness : Big
Codec ID : A_DTS
Duration : 1h 37mn
Bit rate mode : Constant
Bit rate : 1 509 Kbps
Channel(s) : 6 channels
Channel positions : Front: L C R, Side: L R, LFE
Sampling rate : 48.0 KHz
Bit depth : 24 bits
Compression mode : Lossy
Stream size : 1.03 GiB (13%)
Language : English
Default : No
Forced : No

Text #1
ID : 4
Format : UTF-8
Codec ID : S_TEXT/UTF8
Codec ID/Info : UTF-8 Plain Text
Language : Spanish
Default : Yes
Forced : No

Text #2
ID : 5
Format : UTF-8
Codec ID : S_TEXT/UTF8
Codec ID/Info : UTF-8 Plain Text
Language : Spanish
Default : No
Forced : No

Text #3
ID : 6
Format : UTF-8
Codec ID : S_TEXT/UTF8
Codec ID/Info : UTF-8 Plain Text
Language : English
Default : No
Forced : No[/spoiler]














Links Por Partes



Código:
http://uploaded.net/file/f7i4sdu8/Pred3st1n4ti0nBDR.HD1080p.flash.part01.rar
http://uploaded.net/file/ij6f7jfm/Pred3st1n4ti0nBDR.HD1080p.flash.part02.rar
http://uploaded.net/file/j05nvkxy/Pred3st1n4ti0nBDR.HD1080p.flash.part03.rar
http://uploaded.net/file/btnkl1oa/Pred3st1n4ti0nBDR.HD1080p.flash.part04.rar
http://uploaded.net/file/l1omfrdd/Pred3st1n4ti0nBDR.HD1080p.flash.part05.rar
http://uploaded.net/file/f9ukiee5/Pred3st1n4ti0nBDR.HD1080p.flash.part06.rar
http://uploaded.net/file/nv9jfnqe/Pred3st1n4ti0nBDR.HD1080p.flash.part07.rar
http://uploaded.net/file/cedyu7x4/Pred3st1n4ti0nBDR.HD1080p.flash.part08.rar
http://uploaded.net/file/zxtwqfba/Pred3st1n4ti0nBDR.HD1080p.flash.part09.rar
http://uploaded.net/file/7ohgetj1/Pred3st1n4ti0nBDR.HD1080p.flash.part10.rar

Mixto - Uptobox, 1Fichier (Uploaded 100 MB Aproximadamente)




Código:
http://uptobox.com/p8s2nbu6y7mw
http://uptobox.com/5w2oj14mmyni
http://uptobox.com/wqu9z1xuupho
http://uptobox.com/aqfx6xcxdfjc
http://uptobox.com/e43klkp1yib5
http://uptobox.com/rcfbdetppn5s
http://uptobox.com/cf04lfwycw3d
http://uptobox.com/0iwh465me2nc
http://uptobox.com/8yalxowfw8qq
http://uploaded.net/file/7ohgetj1/Pred3st1n4ti0nBDR.HD1080p.flash.part10.rar




Código:
https://1fichier.com/?wr07mp468j
https://1fichier.com/?jzarzq6a53
https://1fichier.com/?jg4416g6rn
https://1fichier.com/?znuqvil0p8
https://1fichier.com/?fx308cfpuo
https://1fichier.com/?tjpym7p8kh
https://1fichier.com/?opeak7ab39
https://1fichier.com/?iky03hm517
https://1fichier.com/?r2hzr5t60q
http://uploaded.net/file/7ohgetj1/Pred3st1n4ti0nBDR.HD1080p.flash.part10.rar