Un agente temporal del gobierno (Hawke) tendrá que realizar una compleja serie de viajes en el tiempo con el fin de detener a futuros asesinos.




Título original: Predestination
País: Australia
Estreno en USA: 09/01/2015
Estreno en España:
Lanzamiento en DVD (alquiler): 28/11/2014
Estreno en Australia: 28/08/2014
Productora: Blacklab Entertainment, Screen Australia, Wolfhound Pictures
Director: Michael Spierig, Peter Spierig
Guión: Michael Spierig, Peter Spierig
Reparto: Ethan Hawke, Sarah Snook, Noah Taylor, Madeleine West, Christopher Kirby, Jim Knobeloch, Freya Stafford
Género: Ciencia ficción. Thriller | Viajes en el tiempo

Formato: Matroska m720p
Tamaño: 2.58 GB
Resolución: 1280x536
Audio 1: AC3 5.1 384 Kbps Castellano SINCRONIZADO
Audio 2: AC3 5.1 384 kbps Ingles
Subs: Español e Ingles + Forzados
Descomprimir: WinRar

MEDIA INFO

[spoiler]Format : Matroska
Format version : Version 2
File size : 2.58 GiB
Duration : 1h 37mn
Overall bit rate : 3 768 Kbps
Encoded date : UTC 2014-11-26 16:50:06
Writing application : mkvmerge v5.3.0 ('I could have danced') built on Feb 9 2012 10:38:07
Writing library : libebml v1.2.3 + libmatroska v1.3.0

Video
ID : 1
Format : AVC
Format/Info : Advanced Video Codec
Format profile : High@L4.1
Format settings, CABAC : Yes
Format settings, ReFrames : 5 frames
Codec ID : V_MPEG4/ISO/AVC
Duration : 1h 37mn
Bit rate : 3 000 Kbps
Width : 1 280 pixels
Height : 536 pixels
Display aspect ratio : 2.40:1
Frame rate mode : Constant
Frame rate : 23.976 fps
Color space : YUV
Chroma subsampling : 4:2:0
Bit depth : 8 bits
Scan type : Progressive
Bits/(Pixel*Frame) : 0.182
Stream size : 2.00 GiB (78%)
Writing library : x264 core 142 r2491 24e4fed
Encoding settings : cabac=1 / ref=5 / deblock=1:-3:-2 / analyse=0x3:0x133 / me=umh / subme=10 / psy=1 / psy_rd=1.00:0.00 / mixed_ref=1 / me_range=32 / chroma_me=1 / trellis=2 / 8x8dct=1 / cqm=0 / deadzone=21,11 / fast_pskip=1 / chroma_qp_offset=-2 / threads=6 / lookahead_threads=1 / sliced_threads=0 / nr=0 / decimate=1 / interlaced=0 / bluray_compat=0 / constrained_intra=0 / bframes=3 / b_pyramid=2 / b_adapt=2 / b_bias=0 / direct=3 / weightb=1 / open_gop=0 / weightp=2 / keyint=240 / keyint_min=22 / scenecut=45 / intra_refresh=0 / rc_lookahead=50 / rc=2pass / mbtree=1 / bitrate=3000 / ratetol=1.5 / qcomp=0.60 / qpmin=0 / qpmax=69 / qpstep=10 / cplxblur=20.0 / qblur=0.5 / vbv_maxrate=30000 / vbv_bufsize=40000 / nal_hrd=none / filler=0 / ip_ratio=1.40 / aq=1:1.00
Language : Spanish
Default : Yes
Forced : No
Color primaries : BT.709
Transfer characteristics : BT.709
Matrix coefficients : BT.709

Audio #1
ID : 2
Format : AC-3
Format/Info : Audio Coding 3
Mode extension : CM (complete main)
Format settings, Endianness : Big
Codec ID : A_AC3
Duration : 1h 37mn
Bit rate mode : Constant
Bit rate : 384 Kbps
Channel(s) : 6 channels
Channel positions : Front: L C R, Side: L R, LFE
Sampling rate : 48.0 KHz
Bit depth : 16 bits
Compression mode : Lossy
Stream size : 269 MiB (10%)
Language : Spanish
Default : Yes
Forced : Yes

Audio #2
ID : 3
Format : AC-3
Format/Info : Audio Coding 3
Mode extension : CM (complete main)
Format settings, Endianness : Big
Codec ID : A_AC3
Duration : 1h 37mn
Bit rate mode : Constant
Bit rate : 384 Kbps
Channel(s) : 6 channels
Channel positions : Front: L C R, Side: L R, LFE
Sampling rate : 48.0 KHz
Bit depth : 16 bits
Compression mode : Lossy
Stream size : 269 MiB (10%)
Language : English
Default : No
Forced : No

Text #1
ID : 4
Format : UTF-8
Codec ID : S_TEXT/UTF8
Codec ID/Info : UTF-8 Plain Text
Title : Forzados
Language : Spanish
Default : Yes
Forced : Yes

Text #2
ID : 5
Format : UTF-8
Codec ID : S_TEXT/UTF8
Codec ID/Info : UTF-8 Plain Text
Language : Spanish
Default : No
Forced : No

Text #3
ID : 6
Format : UTF-8
Codec ID : S_TEXT/UTF8
Codec ID/Info : UTF-8 Plain Text
Language : English
Default : No
Forced : No

Menu
00:00:00.000 : en:00:00:00.000
00:06:04.656 : en:00:06:04.656
00:08:31.678 : en:00:08:31.678
00:15:55.538 : en:00:15:55.538
00:22:33.602 : en:00:22:33.602
00:28:53.273 : en:00:28:53.273
00:34:25.689 : en:00:34:25.689
00:41:07.632 : en:00:41:07.632
00:47:33.059 : en:00:47:33.059
00:52:05.372 : en:00:52:05.372
00:58:46.356 : en:00:58:46.356
01:05:18.832 : en:01:05:18.832
01:12:06.656 : en:01:12:06.656
01:17:43.117 : en:01:17:43.117
01:22:50.382 : en:01:22:50.382
01:29:37.956 : en:01:29:37.956[/spoiler]












1 Link



Código:
http://uploaded.net/file/ef41h3xq/Pred3st1n4ti0n.BDR.m720p.flash.rar

Links Por Partes



Código:
http://uploaded.net/file/7zi6hcwc/Pred3st1n4ti0n.BDR.m720p-flash.part1.rar
http://uploaded.net/file/1mthhik8/Pred3st1n4ti0n.BDR.m720p-flash.part2.rar
http://uploaded.net/file/tdp3mo6t/Pred3st1n4ti0n.BDR.m720p-flash.part3.rar
http://uploaded.net/file/2n7fl2iv/Pred3st1n4ti0n.BDR.m720p-flash.part4.rar

Mixto - Uptobox, 1Fichier (Uploaded 100 MB Aproximadamente)




Código:
http://uptobox.com/kfgu5libb0yu
http://uptobox.com/7ocqw630ce2q
http://uptobox.com/pwbr0nypwdle
http://uploaded.net/file/2n7fl2iv/Pred3st1n4ti0n.BDR.m720p-flash.part4.rar




Código:
https://1fichier.com/?b7p6lyi7qu
https://1fichier.com/?y9nlayuriu
https://1fichier.com/?fr6csxssy3
http://uploaded.net/file/2n7fl2iv/Pred3st1n4ti0n.BDR.m720p-flash.part4.rar