Un agente temporal del gobierno (Hawke) tendrá que realizar una compleja serie de viajes en el tiempo con el fin de detener a futuros asesinos.




Título original: Predestination
País: Australia
Estreno en USA: 09/01/2015
Estreno en España:
Lanzamiento en DVD (alquiler): 28/11/2014
Estreno en Australia: 28/08/2014
Productora: Blacklab Entertainment, Screen Australia, Wolfhound Pictures
Director: Michael Spierig, Peter Spierig
Guión: Michael Spierig, Peter Spierig
Reparto: Ethan Hawke, Sarah Snook, Noah Taylor, Madeleine West, Christopher Kirby, Jim Knobeloch, Freya Stafford
Género: Ciencia ficción. Thriller | Viajes en el tiempo

Formato: Matroska m1080p
Tamaño: 3.79 Gb
Resolución: 1920x800
Audio 1: AC3 5.1 640 Kbps Castellano
Audio 2: AC3 5.1 384 kbps Ingles
Subs: Español e Ingles + Forzados
Descomprimir: WinRar

MEDIA INFO

[spoiler]Format : Matroska
Format version : Version 2
File size : 3.76 GiB
Duration : 1h 37mn
Overall bit rate : 5 505 Kbps
Encoded date : UTC 2014-11-26 14:17:54
Writing application : mkvmerge v5.3.0 ('I could have danced') built on Feb 9 2012 10:38:07
Writing library : libebml v1.2.3 + libmatroska v1.3.0

Video
ID : 1
Format : AVC
Format/Info : Advanced Video Codec
Format profile : High@L4.1
Format settings, CABAC : Yes
Format settings, ReFrames : 4 frames
Codec ID : V_MPEG4/ISO/AVC
Duration : 1h 37mn
Bit rate : 4 372 Kbps
Nominal bit rate : 4 700 Kbps
Width : 1 920 pixels
Height : 800 pixels
Display aspect ratio : 2.40:1
Frame rate mode : Constant
Frame rate : 23.976 fps
Color space : YUV
Chroma subsampling : 4:2:0
Bit depth : 8 bits
Scan type : Progressive
Bits/(Pixel*Frame) : 0.119
Stream size : 2.99 GiB (79%)
Writing library : x264 core 142 r2479kMod dd79a61
Encoding settings : cabac=1 / ref=1 / deblock=1:-1:-1 / analyse=0x3:0x113 / me=hex / subme=2 / psy=1 / fade_compensate=0.00 / psy_rd=1.00:0.00 / mixed_ref=0 / me_range=16 / chroma_me=1 / trellis=0 / 8x8dct=1 / cqm=0 / deadzone=21,11 / fast_pskip=1 / chroma_qp_offset=0 / threads=2 / lookahead_threads=1 / sliced_threads=0 / nr=0 / decimate=1 / interlaced=0 / bluray_compat=0 / constrained_intra=0 / fgo=0 / bframes=3 / b_pyramid=2 / b_adapt=1 / b_bias=0 / direct=1 / weightb=1 / open_gop=0 / weightp=1 / keyint=250 / keyint_min=25 / scenecut=40 / intra_refresh=0 / rc_lookahead=10 / rc=abr / mbtree=1 / bitrate=4700 / ratetol=1.0 / qcomp=0.60 / qpmin=0 / qpmax=69 / qpstep=4 / ip_ratio=1.40 / aq=1:1.00
Language : Spanish
Default : Yes
Forced : No

Audio #1
ID : 2
Format : AC-3
Format/Info : Audio Coding 3
Mode extension : CM (complete main)
Format settings, Endianness : Big
Codec ID : A_AC3
Duration : 1h 37mn
Bit rate mode : Constant
Bit rate : 640 Kbps
Channel(s) : 6 channels
Channel positions : Front: L C R, Side: L R, LFE
Sampling rate : 48.0 KHz
Bit depth : 16 bits
Compression mode : Lossy
Stream size : 448 MiB (12%)
Language : Spanish
Default : Yes
Forced : No

Audio #2
ID : 3
Format : AC-3
Format/Info : Audio Coding 3
Mode extension : CM (complete main)
Format settings, Endianness : Big
Codec ID : A_AC3
Duration : 1h 37mn
Bit rate mode : Constant
Bit rate : 384 Kbps
Channel(s) : 6 channels
Channel positions : Front: L C R, Side: L R, LFE
Sampling rate : 48.0 KHz
Bit depth : 16 bits
Compression mode : Lossy
Stream size : 269 MiB (7%)
Language : English
Default : No
Forced : No

Text #1
ID : 4
Format : UTF-8
Codec ID : S_TEXT/UTF8
Codec ID/Info : UTF-8 Plain Text
Language : Spanish
Default : Yes
Forced : No

Text #2
ID : 5
Format : UTF-8
Codec ID : S_TEXT/UTF8
Codec ID/Info : UTF-8 Plain Text
Language : Spanish
Default : No
Forced : No

Text #3
ID : 6
Format : UTF-8
Codec ID : S_TEXT/UTF8
Codec ID/Info : UTF-8 Plain Text
Language : English
Default : No
Forced : No

Menu
00:00:00.000 : en:00:00:00.000
00:06:04.656 : en:00:06:04.656
00:08:31.678 : en:00:08:31.678
00:15:55.538 : en:00:15:55.538
00:22:33.602 : en:00:22:33.602
00:28:53.273 : en:00:28:53.273
00:34:25.689 : en:00:34:25.689
00:41:07.632 : en:00:41:07.632
00:47:33.059 : en:00:47:33.059
00:52:05.372 : en:00:52:05.372
00:58:46.356 : en:00:58:46.356
01:05:18.832 : en:01:05:18.832
01:12:06.656 : en:01:12:06.656
01:17:43.117 : en:01:17:43.117
01:22:50.382 : en:01:22:50.382
01:29:37.956 : en:01:29:37.956[/spoiler]












1 Link



Código:
http://uploaded.net/file/o75ajepk/Pred3st1n4ti0n.BDR.m1080p.flash.rar

Links Por Partes



Código:
http://uploaded.net/file/3hse1m4a/Pred3st1n4ti0n.BDR.m1080p-flash.part1.rar
http://uploaded.net/file/21cob382/Pred3st1n4ti0n.BDR.m1080p-flash.part2.rar
http://uploaded.net/file/77mgj7py/Pred3st1n4ti0n.BDR.m1080p-flash.part3.rar
http://uploaded.net/file/la14o9q0/Pred3st1n4ti0n.BDR.m1080p-flash.part4.rar
http://uploaded.net/file/2nrzv259/Pred3st1n4ti0n.BDR.m1080p-flash.part5.rar

Mixto - Uptobox, 1Fichier (Uploaded 100 MB Aproximadamente)




Código:
http://uptobox.com/lf6usi61gg59
http://uptobox.com/aiiwtex1zx3d
http://uptobox.com/1mnc1k3ika1q
http://uptobox.com/v0f0gjd1lkzj
http://uploaded.net/file/2nrzv259/Pred3st1n4ti0n.BDR.m1080p-flash.part5.rar




Código:
https://1fichier.com/?ag4aytyu24
https://1fichier.com/?fwifjz04vt
https://1fichier.com/?b1hv1s1p1y
https://1fichier.com/?yr9ntt9qa6
http://uploaded.net/file/2nrzv259/Pred3st1n4ti0n.BDR.m1080p-flash.part5.rar