Resultados 1 al 3 de 3

Tema: Cuenta atrás (2013) [Micro HD720p] [AC3 2.0 Castellano/AC3 5.1 Ingles]

  1. #1
    Pequeño Hacker Avatar de Mrsherlock
    Pais
    Colombia
    Bandera
    Ingreso
    Jun 2014
    Género
    Agradecer
    0
    Agrad. 33 veces en 30 posteos

    Video Cuenta atrás (2013) [Micro HD720p] [AC3 2.0 Castellano/AC3 5.1 Ingles]






    Nolan (Walker) acaba de ser padre de una niña prematura, pero el fallecimiento de su mujer durante el parto le impide sentir la felicidad de un primerizo. En shock y sin terminar de creérselo, apenas tendrá tiempo para reaccionar cuando el caos se apodere del lugar ante la inminente amenaza de uno de los huracánes más destructivos que se han vivido. Sin poderse mover del hospital por las necesidades especiales de la pequeña, el instinto paternal saldrá a flote cuando la vida de la recien nacida se vea en peligro. En una lucha a contrareloj por mantener las máquinas funcionando, el lugar se verá amenazado por las duras condiciones climatológicas y por los saqueadores que buscan víveres en aquel infierno. Desesperación y ternura son los rasgos de esta lucha por el amor y la supervivencia. En una situación límite, no hay tiempo para sentirse afligido, solo importa la supervicencia su hija recien nacida.




    Título original: Hours
    País: USA
    Estreno en USA: 13/12/2013
    Estreno en España:
    Productora: Safran Co
    Director: Eric Heisserer
    Guión: Eric Heisserer
    Reparto: Paul Walker, Genesis Rodriguez, Nick Gomez, Judd Lormand, Michelle Torres, Tony Bentley, Christopher Matthew Cook, Kerry Cahill, Lena Clark, Nancy Nave, TJ Hassan, Yohance Myles, J. Omar Castro, Renell Gibbs, Elton LeBlanc
    Género: Thriller. Drama

    Calidad de Video: BDRip m720p 1280x536 By XKlusiveDD®
    Calidad de Audio: Castellano AC3 2.0 384kbps By XKlusiveDD® e Ingles AC3 5.1 448kbps
    Subtitulos: Español e Ingles Completos
    Tamaño: 2.42 GB
    Descomprimir: WinRar

    NOTA IMPORTANTE:
    Aqui os dejamos este pedazo montaje en PRE-ESTRENO y con calidad DVDRip con un audio Castellano 2.0.

    MEDIA INFO

    [spoiler]Format : Matroska
    Format version : Version 2
    File size : 2.43 GiB
    Duration : 1h 36mn
    Overall bit rate : 3 583 Kbps
    Encoded date : UTC 2014-11-24 20:14:56
    Writing application : mkvmerge v5.3.0 ('I could have danced') built on Feb 9 2012 10:38:07
    Writing library : libebml v1.2.3 + libmatroska v1.3.0

    Video
    ID : 1
    Format : AVC
    Format/Info : Advanced Video Codec
    Format profile : High@L4.1
    Format settings, CABAC : Yes
    Format settings, ReFrames : 5 frames
    Codec ID : V_MPEG4/ISO/AVC
    Duration : 1h 36mn
    Bit rate : 2 750 Kbps
    Width : 1 280 pixels
    Height : 536 pixels
    Display aspect ratio : 2.40:1
    Frame rate mode : Constant
    Frame rate : 23.976 fps
    Color space : YUV
    Chroma subsampling : 4:2:0
    Bit depth : 8 bits
    Scan type : Progressive
    Bits/(Pixel*Frame) : 0.167
    Stream size : 1.82 GiB (75%)
    Writing library : x264 core 138 r2358 9e941d1
    Encoding settings : cabac=1 / ref=5 / deblock=1:-1:-1 / analyse=0x3:0x113 / me=umh / subme=6 / psy=1 / psy_rd=1.00:0.00 / mixed_ref=1 / me_range=20 / chroma_me=1 / trellis=1 / 8x8dct=1 / cqm=2 / deadzone=21,11 / fast_pskip=0 / chroma_qp_offset=-2 / threads=3 / lookahead_threads=1 / sliced_threads=0 / nr=0 / decimate=0 / interlaced=0 / bluray_compat=0 / constrained_intra=0 / bframes=5 / b_pyramid=2 / b_adapt=2 / b_bias=0 / direct=3 / weightb=1 / open_gop=0 / weightp=2 / keyint=240 / keyint_min=23 / scenecut=40 / intra_refresh=0 / rc_lookahead=50 / rc=2pass / mbtree=1 / bitrate=2750 / ratetol=1.0 / qcomp=0.60 / qpmin=1 / qpmax=63 / qpstep=4 / cplxblur=20.0 / qblur=0.5 / vbv_maxrate=62500 / vbv_bufsize=78125 / nal_hrd=none / ip_ratio=1.40 / aq=1:1.00
    Language : Spanish
    Default : Yes
    Forced : No

    Audio #1
    ID : 2
    Format : AC-3
    Format/Info : Audio Coding 3
    Mode extension : CM (complete main)
    Format settings, Endianness : Big
    Codec ID : A_AC3
    Duration : 1h 36mn
    Bit rate mode : Constant
    Bit rate : 384 Kbps
    Channel(s) : 2 channels
    Channel positions : Front: L R
    Sampling rate : 48.0 KHz
    Bit depth : 16 bits
    Compression mode : Lossy
    Stream size : 266 MiB (11%)
    Language : Spanish
    Default : Yes
    Forced : No

    Audio #2
    ID : 3
    Format : AC-3
    Format/Info : Audio Coding 3
    Mode extension : CM (complete main)
    Format settings, Endianness : Big
    Codec ID : A_AC3
    Duration : 1h 36mn
    Bit rate mode : Constant
    Bit rate : 448 Kbps
    Channel(s) : 6 channels
    Channel positions : Front: L C R, Side: L R, LFE
    Sampling rate : 48.0 KHz
    Bit depth : 16 bits
    Compression mode : Lossy
    Stream size : 311 MiB (13%)
    Language : English
    Default : No
    Forced : No

    Text #1
    ID : 4
    Format : UTF-8
    Codec ID : S_TEXT/UTF8
    Codec ID/Info : UTF-8 Plain Text
    Language : Spanish
    Default : No
    Forced : No

    Text #2
    ID : 5
    Format : UTF-8
    Codec ID : S_TEXT/UTF8
    Codec ID/Info : UTF-8 Plain Text
    Language : English
    Default : No
    Forced : No

    Menu
    00:00:00.000 : en:00:00:00.000
    00:07:04.591 : en:00:07:04.591
    00:15:39.230 : en:00:15:39.230
    00:23:37.166 : en:00:23:37.166
    00:32:11.429 : en:00:32:11.429
    00:40:26.424 : en:00:40:26.424
    00:49:04.525 : en:00:49:04.525
    00:56:11.368 : en:00:56:11.368
    01:04:57.268 : en:01:04:57.268
    01:14:31.926 : en:01:14:31.926
    01:23:40.432 : en:01:23:40.432
    01:32:41.139 : en:01:32:41.139[/spoiler]














    1 Link



    Código:
    http://uploaded.net/file/b14h2hdp/Cu3nt4.Atr4s.BDR.m720p.flash.rar

    Links Por Partes



    Código:
    http://uploaded.net/file/1anf14xe/Cu3nt4.Atr4s.BDR.m720p-flash.part1.rar
    http://uploaded.net/file/nebraa6d/Cu3nt4.Atr4s.BDR.m720p-flash.part2.rar
    http://uploaded.net/file/5hnlfp9i/Cu3nt4.Atr4s.BDR.m720p-flash.part3.rar
    http://uploaded.net/file/nl865uzm/Cu3nt4.Atr4s.BDR.m720p-flash.part4.rar

    Mixto - Uptobox, 1Fichier (Uploaded 100 MB Aproximadamente)




    Código:
    http://uptobox.com/kbmizekjz4jz
    http://uptobox.com/uwp124r1e805
    http://uptobox.com/uufd5witaecd
    http://uploaded.net/file/nl865uzm/Cu3nt4.Atr4s.BDR.m720p-flash.part4.rar




    Código:
    https://1fichier.com/?92o0n2din7
    https://1fichier.com/?1z2ma53tx9
    https://1fichier.com/?9f3ldtjxg3
    http://uploaded.net/file/nl865uzm/Cu3nt4.Atr4s.BDR.m720p-flash.part4.rar

  2. #2
    Pequeño Hacker Avatar de Mrsherlock
    Pais
    Colombia
    Bandera
    Ingreso
    Jun 2014
    Género
    Agradecer
    0
    Agrad. 33 veces en 30 posteos

    Video Cuenta atrás (2013) [Micro HD1080p] [AC3 2.0 Castellano/AC3 5.1 Ingles]






    Nolan (Walker) acaba de ser padre de una niña prematura, pero el fallecimiento de su mujer durante el parto le impide sentir la felicidad de un primerizo. En shock y sin terminar de creérselo, apenas tendrá tiempo para reaccionar cuando el caos se apodere del lugar ante la inminente amenaza de uno de los huracánes más destructivos que se han vivido. Sin poderse mover del hospital por las necesidades especiales de la pequeña, el instinto paternal saldrá a flote cuando la vida de la recien nacida se vea en peligro. En una lucha a contrareloj por mantener las máquinas funcionando, el lugar se verá amenazado por las duras condiciones climatológicas y por los saqueadores que buscan víveres en aquel infierno. Desesperación y ternura son los rasgos de esta lucha por el amor y la supervivencia. En una situación límite, no hay tiempo para sentirse afligido, solo importa la supervicencia su hija recien nacida.




    Título original: Hours
    País: USA
    Estreno en USA: 13/12/2013
    Estreno en España:
    Productora: Safran Co
    Director: Eric Heisserer
    Guión: Eric Heisserer
    Reparto: Paul Walker, Genesis Rodriguez, Nick Gomez, Judd Lormand, Michelle Torres, Tony Bentley, Christopher Matthew Cook, Kerry Cahill, Lena Clark, Nancy Nave, TJ Hassan, Yohance Myles, J. Omar Castro, Renell Gibbs, Elton LeBlanc
    Género: Thriller. Drama

    Calidad de Video: BDRip m1080p 1920x804 By XKlusiveDD®
    Calidad de Audio: Castellano AC3 2.0 384kbps By XKlusiveDD® e Ingles AC3 5.1 448kbps
    Subtitulos: Español e Ingles Completos
    Tamaño: 3.15 GB
    Descomprimir: WinRar

    MEDIA INFO

    [spoiler]Format : Matroska
    Format version : Version 2
    File size : 3.15 GiB
    Duration : 1h 36mn
    Overall bit rate : 4 655 Kbps
    Encoded date : UTC 2014-11-24 20:16:02
    Writing application : mkvmerge v5.3.0 ('I could have danced') built on Feb 9 2012 10:38:07
    Writing library : libebml v1.2.3 + libmatroska v1.3.0

    Video
    ID : 1
    Format : AVC
    Format/Info : Advanced Video Codec
    Format profile : High@L4.0
    Format settings, CABAC : Yes
    Format settings, ReFrames : 4 frames
    Codec ID : V_MPEG4/ISO/AVC
    Duration : 1h 36mn
    Bit rate : 3 800 Kbps
    Width : 1 920 pixels
    Height : 800 pixels
    Display aspect ratio : 2.40:1
    Frame rate mode : Constant
    Frame rate : 23.976 fps
    Color space : YUV
    Chroma subsampling : 4:2:0
    Bit depth : 8 bits
    Scan type : Progressive
    Bits/(Pixel*Frame) : 0.103
    Stream size : 2.53 GiB (80%)
    Writing library : x264 core 140 r2377 1ca7bb9
    Encoding settings : cabac=1 / ref=4 / deblock=1:-3:-3 / analyse=0x3:0x133 / me=umh / subme=10 / psy=1 / psy_rd=1.00:0.00 / mixed_ref=1 / me_range=16 / chroma_me=1 / trellis=2 / 8x8dct=1 / cqm=0 / deadzone=21,11 / fast_pskip=1 / chroma_qp_offset=-2 / threads=6 / lookahead_threads=1 / sliced_threads=0 / nr=0 / decimate=1 / interlaced=0 / bluray_compat=0 / constrained_intra=0 / bframes=6 / b_pyramid=0 / b_adapt=1 / b_bias=0 / direct=1 / weightb=1 / open_gop=0 / weightp=2 / keyint=240 / keyint_min=24 / scenecut=40 / intra_refresh=0 / rc_lookahead=40 / rc=2pass / mbtree=1 / bitrate=3800 / ratetol=1.0 / qcomp=0.60 / qpmin=0 / qpmax=69 / qpstep=4 / cplxblur=20.0 / qblur=0.5 / vbv_maxrate=20000 / vbv_bufsize=20000 / nal_hrd=none / filler=0 / ip_ratio=1.40 / aq=1:1.00
    Language : Spanish
    Default : Yes
    Forced : No

    Audio #1
    ID : 2
    Format : AC-3
    Format/Info : Audio Coding 3
    Mode extension : CM (complete main)
    Format settings, Endianness : Big
    Codec ID : A_AC3
    Duration : 1h 36mn
    Bit rate mode : Constant
    Bit rate : 384 Kbps
    Channel(s) : 2 channels
    Channel positions : Front: L R
    Sampling rate : 48.0 KHz
    Bit depth : 16 bits
    Compression mode : Lossy
    Stream size : 266 MiB (8%)
    Language : Spanish
    Default : Yes
    Forced : No

    Audio #2
    ID : 3
    Format : AC-3
    Format/Info : Audio Coding 3
    Mode extension : CM (complete main)
    Format settings, Endianness : Big
    Codec ID : A_AC3
    Duration : 1h 36mn
    Bit rate mode : Constant
    Bit rate : 448 Kbps
    Channel(s) : 6 channels
    Channel positions : Front: L C R, Side: L R, LFE
    Sampling rate : 48.0 KHz
    Bit depth : 16 bits
    Compression mode : Lossy
    Stream size : 311 MiB (10%)
    Language : English
    Default : No
    Forced : No

    Text #1
    ID : 4
    Format : UTF-8
    Codec ID : S_TEXT/UTF8
    Codec ID/Info : UTF-8 Plain Text
    Language : Spanish
    Default : No
    Forced : No

    Text #2
    ID : 5
    Format : UTF-8
    Codec ID : S_TEXT/UTF8
    Codec ID/Info : UTF-8 Plain Text
    Language : English
    Default : No
    Forced : No

    Menu
    00:00:00.000 : en:Chapter 1
    00:07:04.591 : en:Chapter 2
    00:15:39.230 : en:Chapter 3
    00:23:37.166 : en:Chapter 4
    00:32:11.429 : en:Chapter 5
    00:40:26.424 : en:Chapter 6
    00:49:04.525 : en:Chapter 7
    00:56:11.368 : en:Chapter 8
    01:04:57.268 : en:Chapter 9
    01:14:31.926 : en:Chapter 10
    01:23:40.432 : en:Chapter 11
    01:32:41.139 : en:Chapter 12[/spoiler]














    1 Link



    Código:
    http://uploaded.net/file/pqe2gnhk/Cu3nt4.Atr4s.BDR.m1080p.flash.rar

    Links Por Partes



    Código:
    http://uploaded.net/file/bd31e5gg/Cu3nt4.Atr4s.BDR.m1080p-flash.part1.rar
    http://uploaded.net/file/oekbii59/Cu3nt4.Atr4s.BDR.m1080p-flash.part2.rar
    http://uploaded.net/file/li5dirwt/Cu3nt4.Atr4s.BDR.m1080p-flash.part3.rar
    http://uploaded.net/file/hfnburnn/Cu3nt4.Atr4s.BDR.m1080p-flash.part4.rar
    http://uploaded.net/file/1rbvmim3/Cu3nt4.Atr4s.BDR.m1080p-flash.part5.rar

    Mixto - Uptobox, 1Fichier (Uploaded 100 MB Aproximadamente)




    Código:
    http://uptobox.com/rnux1edu15z0
    http://uptobox.com/kaw55so0xqwj
    http://uptobox.com/g2jkv4yc27gz
    http://uptobox.com/pchmjt8qr7z3
    http://uploaded.net/file/1rbvmim3/Cu3nt4.Atr4s.BDR.m1080p-flash.part5.rar




    Código:
    https://1fichier.com/?2w37eo804s
    https://1fichier.com/?u7aec5gva1
    https://1fichier.com/?vd37nxqol9
    https://1fichier.com/?rywvb5hfrf
    http://uploaded.net/file/1rbvmim3/Cu3nt4.Atr4s.BDR.m1080p-flash.part5.rar

  3. #3
    Pequeño Hacker Avatar de Mrsherlock
    Pais
    Colombia
    Bandera
    Ingreso
    Jun 2014
    Género
    Agradecer
    0
    Agrad. 33 veces en 30 posteos

    Video Cuenta atrás (2013) [BDRip HD 1080p] [AC3 2.0 Castellano/DTS 5.1 Ingles]






    Nolan (Walker) acaba de ser padre de una niña prematura, pero el fallecimiento de su mujer durante el parto le impide sentir la felicidad de un primerizo. En shock y sin terminar de creérselo, apenas tendrá tiempo para reaccionar cuando el caos se apodere del lugar ante la inminente amenaza de uno de los huracánes más destructivos que se han vivido. Sin poderse mover del hospital por las necesidades especiales de la pequeña, el instinto paternal saldrá a flote cuando la vida de la recien nacida se vea en peligro. En una lucha a contrareloj por mantener las máquinas funcionando, el lugar se verá amenazado por las duras condiciones climatológicas y por los saqueadores que buscan víveres en aquel infierno. Desesperación y ternura son los rasgos de esta lucha por el amor y la supervivencia. En una situación límite, no hay tiempo para sentirse afligido, solo importa la supervicencia su hija recien nacida.




    Título original: Hours
    País: USA
    Estreno en USA: 13/12/2013
    Estreno en España:
    Productora: Safran Co
    Director: Eric Heisserer
    Guión: Eric Heisserer
    Reparto: Paul Walker, Genesis Rodriguez, Nick Gomez, Judd Lormand, Michelle Torres, Tony Bentley, Christopher Matthew Cook, Kerry Cahill, Lena Clark, Nancy Nave, TJ Hassan, Yohance Myles, J. Omar Castro, Renell Gibbs, Elton LeBlanc
    Género: Thriller. Drama

    Calidad de Video: BDRip 1080p 1920x804 By XKlusiveDD®
    Calidad de Audio: Castellano AC3 2.0 384kbps By XKlusiveDD® e Ingles DTS 5.1 1509kbps
    Subtitulos: Español e Ingles Completos
    Tamaño: 8.20 GB
    Descomprimir: WinRar

    MEDIA INFO

    [spoiler]Format : Matroska
    Format version : Version 2
    File size : 8.21 GiB
    Duration : 1h 36mn
    Overall bit rate : 12.1 Mbps
    Encoded date : UTC 2014-11-24 20:17:11
    Writing application : mkvmerge v5.3.0 ('I could have danced') built on Feb 9 2012 10:38:07
    Writing library : libebml v1.2.3 + libmatroska v1.3.0

    Video
    ID : 1
    Format : AVC
    Format/Info : Advanced Video Codec
    Format profile : High@L4.1
    Format settings, CABAC : Yes
    Format settings, ReFrames : 5 frames
    Codec ID : V_MPEG4/ISO/AVC
    Duration : 1h 36mn
    Bit rate : 10.2 Mbps
    Width : 1 920 pixels
    Height : 804 pixels
    Display aspect ratio : 2.40:1
    Frame rate mode : Constant
    Frame rate : 23.976 fps
    Color space : YUV
    Chroma subsampling : 4:2:0
    Bit depth : 8 bits
    Scan type : Progressive
    Bits/(Pixel*Frame) : 0.276
    Stream size : 6.76 GiB (82%)
    Writing library : x264 core 133 r2334+704+50 a7549b7 tMod [8-bit@4:2:0 X86_64]
    Encoding settings : cabac=1 / ref=5 / deblock=1:-3:-3 / analyse=0x3:0x113 / me=umh / subme=7 / psy=1 / fade_compensate=0.00 / psy_rd=1.00:0.00 / mixed_ref=1 / me_range=16 / chroma_me=1 / trellis=1 / 8x8dct=1 / cqm=0 / deadzone=21,11 / fast_pskip=1 / chroma_qp_offset=-2 / threads=16 / lookahead_threads=2 / sliced_threads=0 / nr=0 / decimate=1 / interlaced=0 / bluray_compat=0 / constrained_intra=0 / fgo=0 / bframes=3 / b_pyramid=2 / b_adapt=1 / b_bias=0 / direct=3 / weightb=1 / open_gop=0 / weightp=2 / keyint=240 / keyint_min=23 / scenecut=40 / intra_refresh=0 / rc_lookahead=50 / rc=2pass / mbtree=1 / bitrate=10224 / ratetol=1.0 / qcomp=0.60 / qpmin=0 / qpmax=69 / qpstep=4 / cplxblur=20.0 / qblur=0.5 / ip_ratio=1.40 / aq=4:1.00 / aq-sensitivity=10.00 / aq-factor=1.00:1.00:1.00 / aq2=0 / aq3=0
    Language : Spanish
    Default : Yes
    Forced : No

    Audio #1
    ID : 2
    Format : AC-3
    Format/Info : Audio Coding 3
    Mode extension : CM (complete main)
    Format settings, Endianness : Big
    Codec ID : A_AC3
    Duration : 1h 36mn
    Bit rate mode : Constant
    Bit rate : 384 Kbps
    Channel(s) : 2 channels
    Channel positions : Front: L R
    Sampling rate : 48.0 KHz
    Bit depth : 16 bits
    Compression mode : Lossy
    Stream size : 266 MiB (3%)
    Language : Spanish
    Default : Yes
    Forced : No

    Audio #2
    ID : 3
    Format : DTS
    Format/Info : Digital Theater Systems
    Mode : 16
    Format settings, Endianness : Big
    Codec ID : A_DTS
    Duration : 1h 36mn
    Bit rate mode : Constant
    Bit rate : 1 509 Kbps
    Channel(s) : 6 channels
    Channel positions : Front: L C R, Side: L R, LFE
    Sampling rate : 48.0 KHz
    Bit depth : 24 bits
    Compression mode : Lossy
    Stream size : 1.02 GiB (12%)
    Language : English
    Default : No
    Forced : No

    Text #1
    ID : 4
    Format : UTF-8
    Codec ID : S_TEXT/UTF8
    Codec ID/Info : UTF-8 Plain Text
    Language : Spanish
    Default : No
    Forced : No

    Text #2
    ID : 5
    Format : UTF-8
    Codec ID : S_TEXT/UTF8
    Codec ID/Info : UTF-8 Plain Text
    Language : English
    Default : No
    Forced : No

    Menu
    00:00:00.000 : en:00:00:00.000
    00:07:04.591 : en:00:07:04.591
    00:15:39.230 : en:00:15:39.230
    00:23:37.166 : en:00:23:37.166
    00:32:11.429 : en:00:32:11.429
    00:40:26.424 : en:00:40:26.424
    00:49:04.525 : en:00:49:04.525
    00:56:11.368 : en:00:56:11.368
    01:04:57.268 : en:01:04:57.268
    01:14:31.926 : en:01:14:31.926
    01:23:40.432 : en:01:23:40.432
    01:32:41.139 : en:01:32:41.139[/spoiler]














    Links Por Partes



    Código:
    http://uploaded.net/file/4jowrd46/Cu3nt4.Atr4sBDR.HD1080p.flash.part01.rar
    http://uploaded.net/file/x9kxnnuf/Cu3nt4.Atr4sBDR.HD1080p.flash.part02.rar
    http://uploaded.net/file/5etpowo6/Cu3nt4.Atr4sBDR.HD1080p.flash.part03.rar
    http://uploaded.net/file/zuqvu4vc/Cu3nt4.Atr4sBDR.HD1080p.flash.part04.rar
    http://uploaded.net/file/o53kvwd8/Cu3nt4.Atr4sBDR.HD1080p.flash.part05.rar
    http://uploaded.net/file/4koe0uoo/Cu3nt4.Atr4sBDR.HD1080p.flash.part06.rar
    http://uploaded.net/file/joldyxo6/Cu3nt4.Atr4sBDR.HD1080p.flash.part07.rar
    http://uploaded.net/file/y1morr0g/Cu3nt4.Atr4sBDR.HD1080p.flash.part08.rar
    http://uploaded.net/file/aiyujihc/Cu3nt4.Atr4sBDR.HD1080p.flash.part09.rar
    http://uploaded.net/file/g57me8x5/Cu3nt4.Atr4sBDR.HD1080p.flash.part10.rar

    Mixto - Uptobox, 1Fichier (Uploaded 100 MB Aproximadamente)




    Código:
    http://uptobox.com/9zo5u9e9phja
    http://uptobox.com/67ul8xqlxs4g
    http://uptobox.com/cbbo0718idde
    http://uptobox.com/yfts6fom9ie8
    http://uptobox.com/fuw01wy8q1v7
    http://uptobox.com/n6s35xqameka
    http://uptobox.com/yoq354ylzbg3
    http://uptobox.com/qwb4mb3j67dt
    http://uptobox.com/znpi1pr6n27y
    http://uploaded.net/file/g57me8x5/Cu3nt4.Atr4sBDR.HD1080p.flash.part10.rar




    Código:
    https://1fichier.com/?frmb8ofmdx
    https://1fichier.com/?u2gw5z7y7e
    https://1fichier.com/?cdfbhc4knf
    https://1fichier.com/?wjjok0dzqz
    https://1fichier.com/?on3byi42um
    https://1fichier.com/?5b1yohv734
    https://1fichier.com/?zlflafgpes
    https://1fichier.com/?twsai6wh8t
    https://1fichier.com/?zx7a7yde2w
    http://uploaded.net/file/g57me8x5/Cu3nt4.Atr4sBDR.HD1080p.flash.part10.rar

Etiquetas para este tema

Permisos de publicación

  • No puedes crear nuevos temas
  • No puedes responder temas
  • No puedes subir archivos adjuntos
  • No puedes editar tus mensajes
  •