La descacharrante aventura de dos colegas que descubren el poder de llevar un uniforme después de una fallida fiesta de disfraces. Desde ese momento, Justin Miller (Damon Wayans Jr.) y Ryan O'Malley (Jake Johnson) saborearán las ventajas (y los peligros) de ser policías en Los Ángeles.




Título: Vamos de polis
Título original: Let's Be Cops
País: USA
Estreno en USA: 13/08/2014
Estreno en España: 24/10/2014
Productora: 20th Century Fox, WideAwake, Genre Films
Director: Luke Greenfield
Guión: Luke Greenfield, Nicholas Thomas
Reparto: Nina Dobrev, Angela Kerecz, Jake Johnson, Damon Wayans Jr., Andy Garcia, James D'Arcy, Rob Riggle, Natasha Leggero, Keegan-Michael Key, Olia Voronkova, Anna Colwell, Jonathan Lajoie, Libby Blanton, King, Jeff Chase
Calificación: No recomendada para menores de 12 años
Género: Comedia. Acción | Buddy Film. Policíaco

Formato: Matroska BDRip 1080p
Tamaño: 10.3 GiB
Resolución: 1920x1036
Audio 1: AC3 5.1 448 Kbps Castellano
Audio 2: DTS 5.1 1509 kbps Inglés
Subs: Español e Ingles.
Descomprimir: WinRar

MEDIA INFO

[spoiler]Format : Matroska
Format version : Version 4 / Version 2
File size : 10.3 GiB
Duration : 1h 44mn
Overall bit rate : 14.2 Mbps
Encoded date : UTC 2014-11-25 21:31:12
Writing application : mkvmerge v6.5.0 ('Isn't she lovely') built on Oct 20 2013 12:50:05
Writing library : libebml v1.3.0 + libmatroska v1.4.1

Video
ID : 1
Format : AVC
Format/Info : Advanced Video Codec
Format profile : High@L4.1
Format settings, CABAC : Yes
Format settings, ReFrames : 4 frames
Codec ID : V_MPEG4/ISO/AVC
Duration : 1h 44mn
Bit rate : 12.2 Mbps
Width : 1 920 pixels
Height : 1 036 pixels
Display aspect ratio : 1.85:1
Frame rate mode : Constant
Frame rate : 23.976 fps
Color space : YUV
Chroma subsampling : 4:2:0
Bit depth : 8 bits
Scan type : Progressive
Bits/(Pixel*Frame) : 0.256
Stream size : 8.69 GiB (84%)
Writing library : x264 core 130 r2273 b3065e6
Encoding settings : cabac=1 / ref=4 / deblock=1:-3:-3 / analyse=0x3:0x133 / me=umh / subme=11 / psy=1 / psy_rd=1.05:0.05 / mixed_ref=1 / me_range=64 / chroma_me=1 / trellis=2 / 8x8dct=1 / cqm=0 / deadzone=21,11 / fast_pskip=0 / chroma_qp_offset=-3 / threads=12 / lookahead_threads=2 / sliced_threads=0 / nr=0 / decimate=1 / interlaced=0 / bluray_compat=0 / constrained_intra=0 / bframes=8 / b_pyramid=2 / b_adapt=2 / b_bias=0 / direct=3 / weightb=1 / open_gop=0 / weightp=2 / keyint=250 / keyint_min=23 / scenecut=40 / intra_refresh=0 / rc_lookahead=60 / rc=2pass / mbtree=1 / bitrate=12193 / ratetol=1.0 / qcomp=0.60 / qpmin=0 / qpmax=69 / qpstep=4 / cplxblur=20.0 / qblur=0.5 / vbv_maxrate=40000 / vbv_bufsize=30000 / nal_hrd=none / ip_ratio=1.40 / aq=1:0.80
Language : English
Default : Yes
Forced : No

Audio #1
ID : 2
Format : AC-3
Format/Info : Audio Coding 3
Mode extension : CM (complete main)
Format settings, Endianness : Big
Codec ID : A_AC3
Duration : 1h 44mn
Bit rate mode : Constant
Bit rate : 448 Kbps
Channel(s) : 6 channels
Channel positions : Front: L C R, Side: L R, LFE
Sampling rate : 48.0 KHz
Bit depth : 16 bits
Compression mode : Lossy
Stream size : 335 MiB (3%)
Language : Spanish
Default : Yes
Forced : No

Audio #2
ID : 3
Format : DTS
Format/Info : Digital Theater Systems
Mode : 16
Format settings, Endianness : Big
Codec ID : A_DTS
Duration : 1h 44mn
Bit rate mode : Constant
Bit rate : 1 509 Kbps
Channel(s) : 6 channels
Channel positions : Front: L C R, Side: L R, LFE
Sampling rate : 48.0 KHz
Bit depth : 24 bits
Compression mode : Lossy
Stream size : 1.10 GiB (11%)
Language : English
Default : No
Forced : No

Text #1
ID : 4
Format : UTF-8
Codec ID : S_TEXT/UTF8
Codec ID/Info : UTF-8 Plain Text
Language : Spanish
Default : No
Forced : No

Text #2
ID : 5
Format : UTF-8
Codec ID : S_TEXT/UTF8
Codec ID/Info : UTF-8 Plain Text
Language : English
Default : No
Forced : No[/spoiler]














Links Por Partes



Código:
http://uploaded.net/file/atfslfhr/V4m0s.P0l1s.BDR.HD1080p.flash.part01.rar
http://uploaded.net/file/3f4lcu9t/V4m0s.P0l1s.BDR.HD1080p.flash.part02.rar
http://uploaded.net/file/ob8efh3n/V4m0s.P0l1s.BDR.HD1080p.flash.part03.rar
http://uploaded.net/file/xw3j5cc7/V4m0s.P0l1s.BDR.HD1080p.flash.part04.rar
http://uploaded.net/file/zt96vk7j/V4m0s.P0l1s.BDR.HD1080p.flash.part05.rar
http://uploaded.net/file/tsq2e59s/V4m0s.P0l1s.BDR.HD1080p.flash.part06.rar
http://uploaded.net/file/urc3qu5v/V4m0s.P0l1s.BDR.HD1080p.flash.part07.rar
http://uploaded.net/file/ms4c0637/V4m0s.P0l1s.BDR.HD1080p.flash.part08.rar
http://uploaded.net/file/6i69pwrh/V4m0s.P0l1s.BDR.HD1080p.flash.part09.rar
http://uploaded.net/file/5dj1826y/V4m0s.P0l1s.BDR.HD1080p.flash.part10.rar
http://uploaded.net/file/fqm47nmb/V4m0s.P0l1s.BDR.HD1080p.flash.part11.rar
http://uploaded.net/file/cz1h1ecr/V4m0s.P0l1s.BDR.HD1080p.flash.part12.rar

Mixto - Uptobox, 1Fichier (Uploaded 100 MB Aproximadamente)




Código:
http://uptobox.com/2ymskka96ql2
http://uptobox.com/6skv5wwsvhto
http://uptobox.com/jvnvgfuk23sn
http://uptobox.com/eim4ko5x6zaa
http://uptobox.com/i7n2xjcx1d3e
http://uptobox.com/lwpvfyecnbib
http://uptobox.com/ql3dhcbxyms6
http://uptobox.com/1s6z1rl56kfl
http://uptobox.com/9xn0w26h2kc0
http://uptobox.com/14towakq7qj3
http://uptobox.com/zppkd47qp3zz
http://uploaded.net/file/cz1h1ecr/V4m0s.P0l1s.BDR.HD1080p.flash.part12.rar




Código:
https://1fichier.com/?xaypxh5elh
https://1fichier.com/?znletu16kh
https://1fichier.com/?8yfzs37w4s
https://1fichier.com/?bw8dqvvgsf
https://1fichier.com/?c93sipogu1
https://1fichier.com/?qcxn627fae
https://1fichier.com/?a56si7cqp3
https://1fichier.com/?or4jo55hip
https://1fichier.com/?glt9l4l5ac
https://1fichier.com/?tp59m0rr2n
https://1fichier.com/?a2dev9i9oa
http://uploaded.net/file/cz1h1ecr/V4m0s.P0l1s.BDR.HD1080p.flash.part12.rar