La descacharrante aventura de dos colegas que descubren el poder de llevar un uniforme después de una fallida fiesta de disfraces. Desde ese momento, Justin Miller (Damon Wayans Jr.) y Ryan O'Malley (Jake Johnson) saborearán las ventajas (y los peligros) de ser policías en Los Ángeles.




Título: Vamos de polis
Título original: Let's Be Cops
País: USA
Estreno en USA: 13/08/2014
Estreno en España: 24/10/2014
Productora: 20th Century Fox, WideAwake, Genre Films
Director: Luke Greenfield
Guión: Luke Greenfield, Nicholas Thomas
Reparto: Nina Dobrev, Angela Kerecz, Jake Johnson, Damon Wayans Jr., Andy Garcia, James D'Arcy, Rob Riggle, Natasha Leggero, Keegan-Michael Key, Olia Voronkova, Anna Colwell, Jonathan Lajoie, Libby Blanton, King, Jeff Chase
Calificación: No recomendada para menores de 12 años
Género: Comedia. Acción | Buddy Film. Policíaco

Formato: Matroska BDRip m1080p
Tamaño: 4.20 GiB
Resolución: XX
Audio 1: AC3 5.1 448 Kbps Castellano
Audio 2: AC3 5.1 448 Kbps Inglés
Subs: Español e Ingles.
Descomprimir: WinRar

MEDIA INFO

[spoiler]Format : Matroska
Format version : Version 4 / Version 2
File size : 4.20 GiB
Duration : 1h 44mn
Overall bit rate : 5 758 Kbps
Encoded date : UTC 2014-11-25 22:16:50
Writing application : mkvmerge v6.5.0 ('Isn't she lovely') built on Oct 20 2013 12:50:05
Writing library : libebml v1.3.0 + libmatroska v1.4.1

Video
ID : 1
Format : AVC
Format/Info : Advanced Video Codec
Format profile : High@L4.1
Format settings, CABAC : Yes
Format settings, ReFrames : 4 frames
Codec ID : V_MPEG4/ISO/AVC
Duration : 1h 44mn
Bit rate : 4 864 Kbps
Width : 1 920 pixels
Height : 1 036 pixels
Display aspect ratio : 1.85:1
Frame rate mode : Constant
Frame rate : 23.976 fps
Color space : YUV
Chroma subsampling : 4:2:0
Bit depth : 8 bits
Scan type : Progressive
Bits/(Pixel*Frame) : 0.102
Stream size : 3.46 GiB (82%)
Writing library : x264 core 142 r2431 ac76440
Encoding settings : cabac=1 / ref=4 / deblock=1:-1:-2 / analyse=0x3:0x113 / me=umh / subme=9 / psy=1 / psy_rd=1.00:0.00 / mixed_ref=1 / me_range=24 / chroma_me=1 / trellis=1 / 8x8dct=1 / cqm=0 / deadzone=21,11 / fast_pskip=0 / chroma_qp_offset=-2 / threads=6 / lookahead_threads=1 / sliced_threads=0 / nr=0 / decimate=1 / interlaced=0 / bluray_compat=0 / constrained_intra=0 / bframes=3 / b_pyramid=2 / b_adapt=2 / b_bias=0 / direct=1 / weightb=1 / open_gop=0 / weightp=2 / keyint=240 / keyint_min=23 / scenecut=40 / intra_refresh=0 / rc_lookahead=50 / rc=2pass / mbtree=1 / bitrate=4864 / ratetol=1.0 / qcomp=0.60 / qpmin=1 / qpmax=65 / qpstep=5 / cplxblur=20.0 / qblur=0.5 / vbv_maxrate=30000 / vbv_bufsize=40000 / nal_hrd=none / filler=0 / ip_ratio=1.50 / aq=1:1.00
Default : Yes
Forced : No

Audio #1
ID : 2
Format : AC-3
Format/Info : Audio Coding 3
Mode extension : CM (complete main)
Format settings, Endianness : Big
Codec ID : A_AC3
Duration : 1h 44mn
Bit rate mode : Constant
Bit rate : 448 Kbps
Channel(s) : 6 channels
Channel positions : Front: L C R, Side: L R, LFE
Sampling rate : 48.0 KHz
Bit depth : 16 bits
Compression mode : Lossy
Stream size : 335 MiB (8%)
Language : Spanish
Default : Yes
Forced : No

Audio #2
ID : 3
Format : AC-3
Format/Info : Audio Coding 3
Mode extension : CM (complete main)
Format settings, Endianness : Big
Codec ID : A_AC3
Duration : 1h 44mn
Bit rate mode : Constant
Bit rate : 448 Kbps
Channel(s) : 6 channels
Channel positions : Front: L C R, Side: L R, LFE
Sampling rate : 48.0 KHz
Bit depth : 16 bits
Compression mode : Lossy
Stream size : 335 MiB (8%)
Language : English
Default : No
Forced : No

Text #1
ID : 4
Format : UTF-8
Codec ID : S_TEXT/UTF8
Codec ID/Info : UTF-8 Plain Text
Language : Spanish
Default : No
Forced : No

Text #2
ID : 5
Format : UTF-8
Codec ID : S_TEXT/UTF8
Codec ID/Info : UTF-8 Plain Text
Language : English
Default : No
Forced : No[/spoiler]














1 Link



Código:
http://uploaded.net/file/36oixitw/V4m0s.P0lis.BDR.m1080.flash.rar

Links Por Partes



Código:
http://uploaded.net/file/kxm73dln/V4m0s.P0lis.BDR.m1080-flash.part1.rar
http://uploaded.net/file/kutz65ka/V4m0s.P0lis.BDR.m1080-flash.part2.rar
http://uploaded.net/file/zwbe7tv7/V4m0s.P0lis.BDR.m1080-flash.part3.rar
http://uploaded.net/file/zf16tekk/V4m0s.P0lis.BDR.m1080-flash.part4.rar
http://uploaded.net/file/hsuj4ior/V4m0s.P0lis.BDR.m1080-flash.part5.rar
http://uploaded.net/file/bfvudj4q/V4m0s.P0lis.BDR.m1080-flash.part6.rar

Mixto - Uptobox, 1Fichier (Uploaded 100 MB Aproximadamente)




Código:
http://uptobox.com/5o3kfvywwgj1
http://uptobox.com/de61an6dpbl5
http://uptobox.com/u1gki65ynevy
http://uptobox.com/153hyfeawviv
http://uptobox.com/04r1p8my0ens
http://uploaded.net/file/bfvudj4q/V4m0s.P0lis.BDR.m1080-flash.part6.rar




Código:
https://1fichier.com/?yt8bvrsyzb
https://1fichier.com/?67gj5v6987
https://1fichier.com/?cgek28lcv8
https://1fichier.com/?0gwi9owzjb
https://1fichier.com/?5r3951dx4a
http://uploaded.net/file/bfvudj4q/V4m0s.P0lis.BDR.m1080-flash.part6.rar