La descacharrante aventura de dos colegas que descubren el poder de llevar un uniforme después de una fallida fiesta de disfraces. Desde ese momento, Justin Miller (Damon Wayans Jr.) y Ryan O'Malley (Jake Johnson) saborearán las ventajas (y los peligros) de ser policías en Los Ángeles.




Título: Vamos de polis
Título original: Let's Be Cops
País: USA
Estreno en USA: 13/08/2014
Estreno en España: 24/10/2014
Productora: 20th Century Fox, WideAwake, Genre Films
Director: Luke Greenfield
Guión: Luke Greenfield, Nicholas Thomas
Reparto: Nina Dobrev, Angela Kerecz, Jake Johnson, Damon Wayans Jr., Andy Garcia, James D'Arcy, Rob Riggle, Natasha Leggero, Keegan-Michael Key, Olia Voronkova, Anna Colwell, Jonathan Lajoie, Libby Blanton, King, Jeff Chase
Calificación: No recomendada para menores de 12 años
Género: Comedia. Acción | Buddy Film. Policíaco

Formato: Matroska BDRip m720
Tamaño: 2.84 GiB
Resolución: XX
Audio 1: AC3 5.1 448 Kbps Castellano
Audio 2: DTS 5.1 1510 kbps Inglés
Subs: Español e Ingles.
Descomprimir: WinRar

MEDIA INFO

[spoiler]General

Format : Matroska
Format version : Version 4 / Version 2
File size : 2.84 GiB
Duration : 1h 44mn
Overall bit rate : 3 889 Kbps
Encoded date : UTC 2014-11-25 21:40:00
Writing application : mkvmerge v6.5.0 ('Isn't she lovely') built on Oct 20 2013 12:50:05
Writing library : libebml v1.3.0 + libmatroska v1.4.1

Video
ID : 1
Format : AVC
Format/Info : Advanced Video Codec
Format profile : High@L4.1
Format settings, CABAC : Yes
Format settings, ReFrames : 9 frames
Codec ID : V_MPEG4/ISO/AVC
Duration : 1h 44mn
Bit rate : 2 995 Kbps
Width : 1 280 pixels
Height : 690 pixels
Display aspect ratio : 1.85:1
Frame rate mode : Constant
Frame rate : 23.976 fps
Color space : YUV
Chroma subsampling : 4:2:0
Bit depth : 8 bits
Scan type : Progressive
Bits/(Pixel*Frame) : 0.141
Stream size : 2.13 GiB (75%)
Writing library : x264 core 142 r2479 dd79a61
Encoding settings : cabac=1 / ref=9 / deblock=1:-3:-3 / analyse=0x3:0x133 / me=umh / subme=10 / psy=1 / psy_rd=1.00:0.07 / mixed_ref=1 / me_range=64 / chroma_me=1 / trellis=2 / 8x8dct=1 / cqm=0 / deadzone=21,11 / fast_pskip=0 / chroma_qp_offset=-3 / threads=12 / lookahead_threads=3 / sliced_threads=0 / nr=0 / decimate=1 / interlaced=0 / bluray_compat=0 / constrained_intra=0 / bframes=16 / b_pyramid=2 / b_adapt=2 / b_bias=0 / direct=3 / weightb=1 / open_gop=0 / weightp=2 / keyint=240 / keyint_min=23 / scenecut=40 / intra_refresh=0 / rc_lookahead=240 / rc=2pass / mbtree=1 / bitrate=2995 / ratetol=1.0 / qcomp=0.60 / qpmin=0 / qpmax=69 / qpstep=4 / cplxblur=20.0 / qblur=0.5 / vbv_maxrate=40000 / vbv_bufsize=30000 / nal_hrd=none / filler=0 / ip_ratio=1.30 / aq=1:1.00
Default : Yes
Forced : No
Color primaries : BT.709
Transfer characteristics : BT.709
Matrix coefficients : BT.709

Audio #1
ID : 2
Format : AC-3
Format/Info : Audio Coding 3
Mode extension : CM (complete main)
Format settings, Endianness : Big
Codec ID : A_AC3
Duration : 1h 44mn
Bit rate mode : Constant
Bit rate : 448 Kbps
Channel count : 6 channels
Channel positions : Front: L C R, Side: L R, LFE
Sampling rate : 48.0 KHz
Bit depth : 16 bits
Compression mode : Lossy
Stream size : 335 MiB (12%)
Language : Spanish
Default : Yes
Forced : No

Audio #2
ID : 3
Format : AC-3
Format/Info : Audio Coding 3
Mode extension : CM (complete main)
Format settings, Endianness : Big
Codec ID : A_AC3
Duration : 1h 44mn
Bit rate mode : Constant
Bit rate : 448 Kbps
Channel count : 6 channels
Channel positions : Front: L C R, Side: L R, LFE
Sampling rate : 48.0 KHz
Bit depth : 16 bits
Compression mode : Lossy
Stream size : 335 MiB (12%)
Language : English
Default : No
Forced : No

Text #1
ID : 4
Format : UTF-8
Codec ID : S_TEXT/UTF8
Codec ID/Info : UTF-8 Plain Text
Language : Spanish
Default : No
Forced : No

Text #2
ID : 5
Format : UTF-8
Codec ID : S_TEXT/UTF8
Codec ID/Info : UTF-8 Plain Text
Language : English
Default : No
Forced : No[/spoiler]














1 Link



Código:
http://uploaded.net/file/5b4wsrr8/V4m0s.P0l1s.BDR.m720.flash.rar

Links Por Partes



Código:
http://uploaded.net/file/sd5d7j8y/V4m0s.P0l1s.BDR.m720-flash.part1.rar
http://uploaded.net/file/8uwsn74p/V4m0s.P0l1s.BDR.m720-flash.part2.rar
http://uploaded.net/file/fff5it1k/V4m0s.P0l1s.BDR.m720-flash.part3.rar
http://uploaded.net/file/e9jy5l0a/V4m0s.P0l1s.BDR.m720-flash.part4.rar

Mixto - Uptobox, 1Fichier (Uploaded 100 MB Aproximadamente)




Código:
http://uptobox.com/2hf8tg0dersp
http://uptobox.com/bmq8k7pwg2bl
http://uptobox.com/e7mtlzw37ys4
http://uploaded.net/file/e9jy5l0a/V4m0s.P0l1s.BDR.m720-flash.part4.rar




Código:
https://1fichier.com/?9n2wz2od7k
https://1fichier.com/?og5r6z1poi
https://1fichier.com/?puadbzi9oh
http://uploaded.net/file/e9jy5l0a/V4m0s.P0l1s.BDR.m720-flash.part4.rar