Carl Casper (Jon Favreau), un chef que pierde su trabajo por negarse a aceptar las exigencias del propietario (Dustin Hoffman), emprende un proyecto de venta de comida en un camión junto a su ex mujer (Sofia Vergara) y su mejor amigo (John Leguizamo). Al mismo tiempo, también intentará unir de nuevo a su familia.




Título original:Chef
Año:2014
Duración:115 min.
Director:Jon Favreau
Guión:Jon Favreau
Fotografía:Kramer Morgenthau
Reparto:Jon Favreau, Sofía Vergara, John Leguizamo, Scarlett Johansson, Oliver Platt, Bobby Cannavale, Dustin Hoffman, Robert Downey Jr., Amy Sedaris, Garry Shandling, Emjay Anthony, Minn Vo, Teebone Mitchell, Maria F. Blanco, Julian Graham
Productora:Open Road Films / Aldamisa Entertainment
Género:Comedia | Familia. Cocina

Descomprimir: WinRar

MEDIA INFO

[spoiler]General

Format : Matroska
Format version : Version 4 / Version 2
File size : 2.55 GiB
Duration : 1h 49mn
Overall bit rate : 3 319 Kbps
Encoded date : UTC 2014-11-10 10:00:36
Writing application : mkvmerge v6.5.0 ('Isn't she lovely') built on Oct 20 2013 12:50:05
Writing library : libebml v1.3.0 + libmatroska v1.4.1

Video
ID : 1
Format : AVC
Format/Info : Advanced Video Codec
Format profile : High@L4.1
Format settings, CABAC : Yes
Format settings, ReFrames : 4 frames
Codec ID : V_MPEG4/ISO/AVC
Duration : 1h 49mn
Bit rate : 2 500 Kbps
Width : 1 280 pixels
Height : 532 pixels
Display aspect ratio : 2.40:1
Original display aspect ratio : 2.40:1
Frame rate mode : Constant
Frame rate : 25.000 fps
Color space : YUV
Chroma subsampling : 4:2:0
Bit depth : 8 bits
Scan type : Progressive
Bits/(Pixel*Frame) : 0.147
Stream size : 1.86 GiB (73%)
Writing library : x264 core 130 r2273 b3065e6
Encoding settings : cabac=1 / ref=3 / deblock=1:0:0 / analyse=0x3:0x113 / me=hex / subme=7 / psy=1 / psy_rd=1.00:0.00 / mixed_ref=1 / me_range=16 / chroma_me=1 / trellis=1 / 8x8dct=1 / cqm=0 / deadzone=21,11 / fast_pskip=1 / chroma_qp_offset=-2 / threads=24 / lookahead_threads=4 / sliced_threads=0 / nr=0 / decimate=1 / interlaced=0 / bluray_compat=0 / constrained_intra=0 / bframes=3 / b_pyramid=2 / b_adapt=1 / b_bias=0 / direct=1 / weightb=1 / open_gop=0 / weightp=2 / keyint=250 / keyint_min=25 / scenecut=40 / intra_refresh=0 / rc_lookahead=40 / rc=abr / mbtree=1 / bitrate=2500 / ratetol=1.0 / qcomp=0.60 / qpmin=0 / qpmax=69 / qpstep=4 / vbv_maxrate=62500 / vbv_bufsize=78125 / nal_hrd=none / ip_ratio=1.40 / aq=1:1.00
Language : English
Default : Yes
Forced : No
Color primaries : BT.709
Transfer characteristics : BT.709
Matrix coefficients : BT.709

Audio #1
ID : 2
Format : AC-3
Format/Info : Audio Coding 3
Mode extension : CM (complete main)
Format settings, Endianness : Big
Codec ID : A_AC3
Duration : 1h 49mn
Bit rate mode : Constant
Bit rate : 384 Kbps
Channel count : 6 channels
Channel positions : Front: L C R, Side: L R, LFE
Sampling rate : 48.0 KHz
Bit depth : 16 bits
Compression mode : Lossy
Stream size : 302 MiB (12%)
Language : Spanish
Default : Yes
Forced : No

Audio #2
ID : 3
Format : AC-3
Format/Info : Audio Coding 3
Mode extension : CM (complete main)
Format settings, Endianness : Big
Codec ID : A_AC3
Duration : 1h 49mn
Bit rate mode : Constant
Bit rate : 448 Kbps
Channel count : 6 channels
Channel positions : Front: L C R, Side: L R, LFE
Sampling rate : 48.0 KHz
Bit depth : 16 bits
Compression mode : Lossy
Stream size : 352 MiB (13%)
Language : English
Default : No
Forced : No

Text #1
ID : 4
Format : UTF-8
Codec ID : S_TEXT/UTF8
Codec ID/Info : UTF-8 Plain Text
Language : Spanish
Default : No
Forced : No

Text #2
ID : 5
Format : UTF-8
Codec ID : S_TEXT/UTF8
Codec ID/Info : UTF-8 Plain Text
Language : English
Default : No
Forced : No

Menu
00:00:00.000 : en:00:00:00.000
00:05:20.520 : en:00:05:20.520
00:10:36.520 : en:00:10:36.520
00:16:33.080 : en:00:16:33.080
00:19:57.520 : en:00:19:57.520
00:25:29.800 : en:00:25:29.800
00:33:00.640 : en:00:33:00.640
00:39:24.720 : en:00:39:24.720
00:47:09.800 : en:00:47:09.800
00:51:40.560 : en:00:51:40.560
00:57:51.000 : en:00:57:51.000
01:04:16.360 : en:01:04:16.360
01:13:13.000 : en:01:13:13.000
01:20:26.760 : en:01:20:26.760
01:26:05.200 : en:01:26:05.200
01:33:08.160 : en:01:33:08.160
01:39:34.080 : en:01:39:34.080
01:43:51.760 : en:01:43:51.760[/spoiler]












1 Link



Código:
http://uploaded.net/file/ky4du8jf/Ch3f.BDR.m720p.flash.rar

Links Por Partes



Código:
http://uploaded.net/file/cl0jg8k6/Ch3f.BDR.m720p-flash.part1.rar
http://uploaded.net/file/vipc4i6j/Ch3f.BDR.m720p-flash.part2.rar
http://uploaded.net/file/rcy71n8d/Ch3f.BDR.m720p-flash.part3.rar
http://uploaded.net/file/mm0n6vee/Ch3f.BDR.m720p-flash.part4.rar

Mixto - Uptobox, 1Fichier (Uploaded 100 MB Aproximadamente)




Código:
http://uptobox.com/e11t4hjlrfiu
http://uptobox.com/reabhnpsquiy
http://uptobox.com/rf1nt1pwcjqs
http://uploaded.net/file/mm0n6vee/Ch3f.BDR.m720p-flash.part4.rar




Código:
https://1fichier.com/?oem8e5g989
https://1fichier.com/?ig11io93yw
https://1fichier.com/?ttjdl9khji
http://uploaded.net/file/mm0n6vee/Ch3f.BDR.m720p-flash.part4.rar