Paul es un mafioso retirado que se ve obligado a volver a la ciudad para buscar a su hija desaparecida. En su vuelta, tendrá que enfrentarse a sus viejos enemigos, entre los que se encuentra Omar, que lleva muchos años esperando encontrarse con Paul para ajustar cuentas.




Título original The Prince
Año 2014
Duración 93 min.
País Estados Unidos
Director Brian A. Miller
Guión Andre Fabrizio, Jeremy Passmore
Música The Newton Brothers
Fotografía Yaron Levy
Reparto Jason Patric, John Cusack, Bruce Willis, Jessica Lowdes, Curtis '50 Cent' Jackson, Rain, Tara Holt, Jessica Lowndes, Johnathon Schaech, Gia Mantegna, Courtney B Turk, Don Harvey, Tyler J. Olson, Jaylen Moore, Tim Fields, Natalie Light, Ryan Sanson, Ginger McNamara, Michelle Jones, Didi Costine, Danielle Phelan
Productora Grindstone Entertainment / Emmett/Furla Films / Aperture Entertainment / Oasis Films
Género Thriller. Acción | Secuestros / Desapariciones. Venganza

Descomprimir: WinRar
Subs: Español e Ingles. Español Forzados.

MEDIA INFO

[spoiler]Format : Matroska
Format version : Version 2
File size : 3.69 GiB
Duration : 1h 30mn
Overall bit rate : 5 832 Kbps
Movie name : The.Prince.m1080p.santorun1
Encoded date : UTC 2014-11-07 00:43:50
Writing application : mkvmerge v4.8.0 ('I Got The...') creado el May 24 2011 03:12:58
Writing library : libebml v1.2.0 + libmatroska v1.1.0

Video
ID : 1
Format : AVC
Format/Info : Advanced Video Codec
Format profile : High@L4.1
Format settings, CABAC : Yes
Format settings, ReFrames : 4 frames
Codec ID : V_MPEG4/ISO/AVC
Duration : 1h 30mn
Bit rate : 5 000 Kbps
Width : 1 920 pixels
Height : 800 pixels
Display aspect ratio : 2.40:1
Frame rate : 23.976 fps
Color space : YUV
Chroma subsampling : 4:2:0
Bit depth : 8 bits
Scan type : Progressive
Bits/(Pixel*Frame) : 0.136
Stream size : 3.09 GiB (84%)
Title : The.Prince.m1080p.santorun1
Writing library : x264 core 142 r2479kMod dd79a61
Encoding settings : cabac=1 / ref=1 / deblock=1:-1:-1 / analyse=0x3:0x113 / me=hex / subme=2 / psy=1 / fade_compensate=0.00 / psy_rd=1.00:0.00 / mixed_ref=0 / me_range=16 / chroma_me=1 / trellis=0 / 8x8dct=1 / cqm=0 / deadzone=21,11 / fast_pskip=1 / chroma_qp_offset=0 / threads=2 / lookahead_threads=1 / sliced_threads=0 / nr=0 / decimate=1 / interlaced=0 / bluray_compat=0 / constrained_intra=0 / fgo=0 / bframes=3 / b_pyramid=2 / b_adapt=1 / b_bias=0 / direct=1 / weightb=1 / open_gop=0 / weightp=1 / keyint=250 / keyint_min=25 / scenecut=40 / intra_refresh=0 / rc_lookahead=10 / rc=2pass / mbtree=1 / bitrate=5000 / ratetol=1.0 / qcomp=0.60 / qpmin=0 / qpmax=69 / qpstep=4 / cplxblur=20.0 / qblur=0.5 / ip_ratio=1.40 / aq=1:1.00
Language : Spanish

Audio #1
ID : 2
Format : AC-3
Format/Info : Audio Coding 3
Mode extension : CM (complete main)
Codec ID : A_AC3
Duration : 1h 30mn
Bit rate mode : Constant
Bit rate : 448 Kbps
Channel(s) : 6 channels
Channel positions : Front: L C R, Side: L R, LFE
Sampling rate : 48.0 KHz
Bit depth : 16 bits
Compression mode : Lossy
Stream size : 291 MiB (8%)
Title : By santorun1
Language : Spanish

Audio #2
ID : 3
Format : AC-3
Format/Info : Audio Coding 3
Mode extension : CM (complete main)
Codec ID : A_AC3
Duration : 1h 30mn
Bit rate mode : Constant
Bit rate : 384 Kbps
Channel(s) : 6 channels
Channel positions : Front: L C R, Side: L R, LFE
Sampling rate : 48.0 KHz
Bit depth : 16 bits
Compression mode : Lossy
Stream size : 249 MiB (7%)
Title : By santorun1
Language : English

Text #1
ID : 4
Format : UTF-8
Codec ID : S_TEXT/UTF8
Codec ID/Info : UTF-8 Plain Text
Title : Forzados.By santorun1
Language : Spanish

Text #2
ID : 5
Format : UTF-8
Codec ID : S_TEXT/UTF8
Codec ID/Info : UTF-8 Plain Text
Title : By santorun1
Language : Spanish

Text #3
ID : 6
Format : UTF-8
Codec ID : S_TEXT/UTF8
Codec ID/Info : UTF-8 Plain Text
Title : By santorun1
Language : English
[/spoiler]












1 Link



Código:
http://uploaded.net/file/yzzm9t36/Pr1nc3.BDR.m1080p.flash.rar

Links Por Partes



Código:
http://uploaded.net/file/x6ljytez/Pr1nc3.BDR.m1080p-flash.part1.rar
http://uploaded.net/file/wcndvb6k/Pr1nc3.BDR.m1080p-flash.part2.rar
http://uploaded.net/file/fu2frh0g/Pr1nc3.BDR.m1080p-flash.part3.rar
http://uploaded.net/file/cn8ndrls/Pr1nc3.BDR.m1080p-flash.part4.rar
http://uploaded.net/file/1ji44ovs/Pr1nc3.BDR.m1080p-flash.part5.rar

Mixto - Uptobox, 1Fichier (Uploaded 100 MB Aproximadamente)




Código:
http://uptobox.com/5buxbznrecqt
http://uptobox.com/ci62aa1v02fr
http://uptobox.com/eh31hp37x0yr
http://uptobox.com/f4o66jm8hmvh
http://uploaded.net/file/1ji44ovs/Pr1nc3.BDR.m1080p-flash.part5.rar




Código:
https://1fichier.com/?bkprpi7izi
https://1fichier.com/?uu6ahxlhvk
https://1fichier.com/?5iakzruq6v
https://1fichier.com/?of24hm9nv0
http://uploaded.net/file/1ji44ovs/Pr1nc3.BDR.m1080p-flash.part5.rar