Siguiendo los pasos de su modelo, 'Silent House' es un cuento de terror que presenta al personaje que interpreta Olsen dentro de una vieja casa de campo, en compañía de su padre (dueño de la propiedad), donde pasará la noche con el objetivo de a la mañana siguiente empezar con las tareas de restauración, una noche que sobra decir no será precisamente tranquila.




Título original: Silent House
Año: 2011
Duración: 85 min.
Director: Chris Kentis, Laura Lau
Guión: Laura Lau (Basado en el guión de: Gustavo Hernández)
Música: Nathan Larson
Fotografía: Igor Martinovic
Reparto: Elizabeth Olsen, Adam Trese, Eric Sheffer Stevens, Julia Taylor Ross, Haley Murphy, Adam Barnett
Productora: IFC Films
Género: Terror | Remake

Descomprimir: WinRar

MEDIA INFO

Código:
Format                                   : Matroska
Format version                           : Version 2
File size                                : 6.81 GiB
Duration                                 : 1h 25mn
Overall bit rate                         : 11.3 Mbps
Encoded date                             : UTC 2014-11-05 16:16:29
Writing application                      : mkvmerge v5.0.1 ('Es ist Sommer') built on Oct  9 2011 11:55:43
Writing library                          : libebml v1.2.2 + libmatroska v1.3.0


Video
ID                                       : 1
Format                                   : AVC
Format/Info                              : Advanced Video Codec
Format profile                           : High@L4.1
Format settings, CABAC                   : Yes
Format settings, ReFrames                : 4 frames
Codec ID                                 : V_MPEG4/ISO/AVC
Duration                                 : 1h 25mn
Bit rate                                 : 9 400 Kbps
Width                                    : 1 920 pixels
Height                                   : 1 040 pixels
Display aspect ratio                     : 1.85:1
Frame rate mode                          : Constant
Frame rate                               : 23.976 fps
Color space                              : YUV
Chroma subsampling                       : 4:2:0
Bit depth                                : 8 bits
Scan type                                : Progressive
Bits/(Pixel*Frame)                       : 0.196
Stream size                              : 5.50 GiB (81%)
Writing library                          : x264 core 120 r2145 748fe16
Encoding settings                        : cabac=1 / ref=4 / deblock=1:-3:-3 / analyse=0x3:0x133 / me=umh / subme=6 / psy=1 / psy_rd=1.00:0.10 / mixed_ref=1 / me_range=24 / chroma_me=1 / trellis=2 / 8x8dct=1 / cqm=0 / deadzone=21,11 / fast_pskip=0 / chroma_qp_offset=-3 / threads=6 / sliced_threads=0 / nr=0 / decimate=0 / interlaced=0 / bluray_compat=0 / constrained_intra=0 / bframes=8 / b_pyramid=2 / b_adapt=2 / b_bias=0 / direct=3 / weightb=1 / open_gop=0 / weightp=2 / keyint=360 / keyint_min=2 / scenecut=40 / intra_refresh=0 / rc=2pass / mbtree=0 / bitrate=9400 / ratetol=1.0 / qcomp=0.70 / qpmin=0 / qpmax=69 / qpstep=4 / cplxblur=20.0 / qblur=0.5 / ip_ratio=1.40 / pb_ratio=1.30 / aq=1:1.00
Language                                 : English
Default                                  : No
Forced                                   : No


Audio #1
ID                                       : 2
Format                                   : AC-3
Format/Info                              : Audio Coding 3
Mode extension                           : CM (complete main)
Format settings, Endianness              : Big
Codec ID                                 : A_AC3
Duration                                 : 1h 25mn
Bit rate mode                            : Constant
Bit rate                                 : 448 Kbps
Channel count                            : 6 channels
Channel positions                        : Front: L C R, Side: L R, LFE
Sampling rate                            : 48.0 KHz
Bit depth                                : 16 bits
Compression mode                         : Lossy
Stream size                              : 275 MiB (4%)
Language                                 : Spanish
Default                                  : Yes
Forced                                   : Yes


Audio #2
ID                                       : 3
Format                                   : DTS
Format/Info                              : Digital Theater Systems
Mode                                     : 16
Format settings, Endianness              : Big
Codec ID                                 : A_DTS
Duration                                 : 1h 25mn
Bit rate mode                            : Constant
Bit rate                                 : 1 509 Kbps
Channel count                            : 6 channels
Channel positions                        : Front: L C R, Side: L R, LFE
Sampling rate                            : 48.0 KHz
Bit depth                                : 24 bits
Compression mode                         : Lossy
Stream size                              : 927 MiB (13%)
Language                                 : English
Default                                  : No
Forced                                   : No


Text #1
ID                                       : 4
Format                                   : UTF-8
Codec ID                                 : S_TEXT/UTF8
Codec ID/Info                            : UTF-8 Plain Text
Language                                 : English
Default                                  : No
Forced                                   : No


Text #2
ID                                       : 5
Format                                   : UTF-8
Codec ID                                 : S_TEXT/UTF8
Codec ID/Info                            : UTF-8 Plain Text
Language                                 : Spanish
Default                                  : No
Forced                                   : No


Menu
00:00:00.000                             : :Chapter 01
00:03:11.816                             : :Chapter 02
00:07:58.436                             : :Chapter 03
00:11:49.667                             : :Chapter 04
00:14:40.671                             : :Chapter 05
00:20:24.348                             : :Chapter 06
00:24:39.603                             : :Chapter 07
00:28:50.186                             : :Chapter 08
00:34:59.555                             : :Chapter 09
00:41:19.435                             : :Chapter 10
00:44:14.610                             : :Chapter 11
00:48:49.051                             : :Chapter 12
00:51:34.216                             : :Chapter 13
00:55:29.117                             : :Chapter 14
00:59:48.710                             : :Chapter 15
01:05:32.720                             : :Chapter 16
01:10:12.499                             : :Chapter 17
01:13:06.673                             : :Chapter 18
01:16:08.855                             : :Chapter 19
01:20:41.545                             : :Chapter 20











Links Por Partes



Código:
http://uploaded.net/file/m41dj9c8/S1l3nt.h0us3.BDR1080p.flash.part01.rar
http://uploaded.net/file/fb800t9g/S1l3nt.h0us3.BDR1080p.flash.part02.rar
http://uploaded.net/file/2ke2lj3d/S1l3nt.h0us3.BDR1080p.flash.part03.rar
http://uploaded.net/file/g5a73n8g/S1l3nt.h0us3.BDR1080p.flash.part04.rar
http://uploaded.net/file/z22b60i4/S1l3nt.h0us3.BDR1080p.flash.part05.rar
http://uploaded.net/file/jktzvxo0/S1l3nt.h0us3.BDR1080p.flash.part06.rar
http://uploaded.net/file/ng9rn0nv/S1l3nt.h0us3.BDR1080p.flash.part07.rar
http://uploaded.net/file/qy2oiw2z/S1l3nt.h0us3.BDR1080p.flash.part08.rar
http://uploaded.net/file/mica0k0u/S1l3nt.h0us3.BDR1080p.flash.part09.rar

Mixto - Uptobox, 1Fichier (Uploaded 100 MB Aproximadamente)




Código:
http://uptobox.com/3v7ypd4br5i4
http://uptobox.com/51nopyr7c92t
http://uptobox.com/wbda974cecpp
http://uptobox.com/cntvzu9awwb1
http://uptobox.com/t4h43c5o7fjf
http://uptobox.com/qmms9qa9q2bz
http://uptobox.com/0gqms96s09or
http://uptobox.com/k5eaeqgf8w1m
http://uploaded.net/file/mica0k0u/S1l3nt.h0us3.BDR1080p.flash.part09.rar




Código:
https://1fichier.com/?na1z5rpxfa
https://1fichier.com/?7v6jie211k
https://1fichier.com/?j9id4ee94q
https://1fichier.com/?331qr89808
https://1fichier.com/?7k5xy9oxys
https://1fichier.com/?59umy83n69
https://1fichier.com/?1oz76x4lsh
https://1fichier.com/?mhy1imapax
http://uploaded.net/file/mica0k0u/S1l3nt.h0us3.BDR1080p.flash.part09.rar