Siguiendo los pasos de su modelo, 'Silent House' es un cuento de terror que presenta al personaje que interpreta Olsen dentro de una vieja casa de campo, en compañía de su padre (dueño de la propiedad), donde pasará la noche con el objetivo de a la mañana siguiente empezar con las tareas de restauración, una noche que sobra decir no será precisamente tranquila.




Título original: Silent House
Año: 2011
Duración: 85 min.
Director: Chris Kentis, Laura Lau
Guión: Laura Lau (Basado en el guión de: Gustavo Hernández)
Música: Nathan Larson
Fotografía: Igor Martinovic
Reparto: Elizabeth Olsen, Adam Trese, Eric Sheffer Stevens, Julia Taylor Ross, Haley Murphy, Adam Barnett
Productora: IFC Films
Género: Terror | Remake

Descomprimir: WinRar

MEDIA INFO

Código:
Format                                   : Matroska
Format version                           : Version 2
File size                                : 3.22 GiB
Duration                                 : 1h 25mn
Overall bit rate                         : 5 365 Kbps
Encoded date                             : UTC 2014-11-05 16:58:32
Writing application                      : mkvmerge v5.0.1 ('Es ist Sommer') built on Oct  9 2011 11:55:43
Writing library                          : libebml v1.2.2 + libmatroska v1.3.0


Video
ID                                       : 1
Format                                   : AVC
Format/Info                              : Advanced Video Codec
Format profile                           : High@L4.1
Format settings, CABAC                   : Yes
Format settings, ReFrames                : 4 frames
Codec ID                                 : V_MPEG4/ISO/AVC
Duration                                 : 1h 25mn
Bit rate                                 : 4 170 Kbps
Nominal bit rate                         : 4 500 Kbps
Width                                    : 1 728 pixels
Height                                   : 1 040 pixels
Display aspect ratio                     : 1.662
Frame rate mode                          : Constant
Frame rate                               : 23.976 fps
Color space                              : YUV
Chroma subsampling                       : 4:2:0
Bit depth                                : 8 bits
Scan type                                : Progressive
Bits/(Pixel*Frame)                       : 0.097
Stream size                              : 2.50 GiB (78%)
Writing library                          : x264 core 130 r2273 b3065e6
Encoding settings                        : cabac=1 / ref=3 / deblock=1:0:0 / analyse=0x3:0x113 / me=hex / subme=7 / psy=1 / psy_rd=1.00:0.00 / mixed_ref=1 / me_range=16 / chroma_me=1 / trellis=1 / 8x8dct=1 / cqm=0 / deadzone=21,11 / fast_pskip=1 / chroma_qp_offset=-2 / threads=24 / lookahead_threads=4 / sliced_threads=0 / nr=0 / decimate=1 / interlaced=0 / bluray_compat=0 / constrained_intra=0 / bframes=3 / b_pyramid=2 / b_adapt=1 / b_bias=0 / direct=1 / weightb=1 / open_gop=0 / weightp=2 / keyint=240 / keyint_min=24 / scenecut=40 / intra_refresh=0 / rc_lookahead=40 / rc=abr / mbtree=1 / bitrate=4500 / ratetol=1.0 / qcomp=0.60 / qpmin=0 / qpmax=69 / qpstep=4 / vbv_maxrate=62500 / vbv_bufsize=78125 / nal_hrd=none / ip_ratio=1.40 / aq=1:1.00
Language                                 : English
Default                                  : Yes
Forced                                   : No
Color primaries                          : BT.709
Transfer characteristics                 : BT.709
Matrix coefficients                      : BT.709


Audio #1
ID                                       : 2
Format                                   : AC-3
Format/Info                              : Audio Coding 3
Mode extension                           : CM (complete main)
Format settings, Endianness              : Big
Codec ID                                 : A_AC3
Duration                                 : 1h 25mn
Bit rate mode                            : Constant
Bit rate                                 : 448 Kbps
Channel count                            : 6 channels
Channel positions                        : Front: L C R, Side: L R, LFE
Sampling rate                            : 48.0 KHz
Bit depth                                : 16 bits
Compression mode                         : Lossy
Stream size                              : 275 MiB (8%)
Language                                 : Spanish
Default                                  : Yes
Forced                                   : Yes


Audio #2
ID                                       : 3
Format                                   : AC-3
Format/Info                              : Audio Coding 3
Mode extension                           : CM (complete main)
Format settings, Endianness              : Big
Codec ID                                 : A_AC3
Duration                                 : 1h 25mn
Bit rate mode                            : Constant
Bit rate                                 : 640 Kbps
Channel count                            : 6 channels
Channel positions                        : Front: L C R, Side: L R, LFE
Sampling rate                            : 48.0 KHz
Bit depth                                : 16 bits
Compression mode                         : Lossy
Stream size                              : 393 MiB (12%)
Language                                 : English
Default                                  : No
Forced                                   : No


Text #1
ID                                       : 4
Format                                   : UTF-8
Codec ID                                 : S_TEXT/UTF8
Codec ID/Info                            : UTF-8 Plain Text
Language                                 : English
Default                                  : No
Forced                                   : No


Text #2
ID                                       : 5
Format                                   : UTF-8
Codec ID                                 : S_TEXT/UTF8
Codec ID/Info                            : UTF-8 Plain Text
Language                                 : Spanish
Default                                  : No
Forced                                   : No


Menu
00:00:00.000                             : :Chapter 01
00:03:11.816                             : :Chapter 02
00:07:58.436                             : :Chapter 03
00:11:49.667                             : :Chapter 04
00:14:40.671                             : :Chapter 05
00:20:24.348                             : :Chapter 06
00:24:39.603                             : :Chapter 07
00:28:50.186                             : :Chapter 08
00:34:59.555                             : :Chapter 09
00:41:19.435                             : :Chapter 10
00:44:14.610                             : :Chapter 11
00:48:49.051                             : :Chapter 12
00:51:34.216                             : :Chapter 13
00:55:29.117                             : :Chapter 14
00:59:48.710                             : :Chapter 15
01:05:32.720                             : :Chapter 16
01:10:12.499                             : :Chapter 17
01:13:06.673                             : :Chapter 18
01:16:08.855                             : :Chapter 19
01:20:41.545                             : :Chapter 20











1 Link



Código:
http://uploaded.net/file/zuflhysm/Sil3nt.h0us3.BDR.m1080p.flash.rar

Links Por Partes



Código:
http://uploaded.net/file/69o768t3/Sil3nt.h0us3.BDR.m1080p-flash.part1.rar
http://uploaded.net/file/uuiirr6j/Sil3nt.h0us3.BDR.m1080p-flash.part2.rar
http://uploaded.net/file/hc84wv30/Sil3nt.h0us3.BDR.m1080p-flash.part3.rar
http://uploaded.net/file/z8vubngb/Sil3nt.h0us3.BDR.m1080p-flash.part4.rar
http://uploaded.net/file/ft84th1u/Sil3nt.h0us3.BDR.m1080p-flash.part5.rar

Mixto - Uptobox, 1Fichier (Uploaded 100 MB Aproximadamente)




Código:
http://uptobox.com/7gr3n6r8k5gg
http://uptobox.com/sjxtgjdmzq57
http://uptobox.com/wtvq49ww9yrt
http://uptobox.com/394gey9i4nyc
http://uploaded.net/file/ft84th1u/Sil3nt.h0us3.BDR.m1080p-flash.part5.rar




Código:
https://1fichier.com/?12m6zn3qv8
https://1fichier.com/?45fto8icfq
https://1fichier.com/?bwnk5zij47
https://1fichier.com/?717uqkfd3t
http://uploaded.net/file/ft84th1u/Sil3nt.h0us3.BDR.m1080p-flash.part5.rar