La película sigue a Thomas Carter (Mackie), un experimentado orientador que es misteriosamente secuestrado por un paciente trastornado, Angel Sánchez (Whitaker), quien profundiza en las enseñanzas de Thomas y utiliza sus mensajes espirituales de Karma - acción y reacción en contra de él y su familia para aterrorizarle con sus pecados del pasado.




Título original:Repentance
Año:2013
Duración:90min
Director:Philippe Caland
Guión:Shintaro Shimosawa, Philippe Caland
Música:Mark Kilian
Fotografía:Denis Maloney
Reparto:Forest Whitaker, Anthony Mackie, Mike Epps, Sanaa Lathan, Nicole Ari Parker, Ariana Neal, Denise Milfort, Selma Pinkard, Margo Swisher, Peter Weller
Productora:Tommy 2.0 LLC / Forest Whitaker's Significant Productions
Género:Terror. Thriller | Secuestros / Desapariciones

Descomprimir: WinRar

MEDIA INFO

Código:
General

Format                                   : Matroska
Format version                           : Version 2
File size                                : 4.17 GiB
Duration                                 : 1h 34mn
Overall bit rate                         : 6 306 Kbps
Encoded date                             : UTC 2014-11-01 15:08:46
Writing application                      : mkvmerge v5.0.1 ('Es ist Sommer') built on Oct  9 2011 11:55:43
Writing library                          : libebml v1.2.2 + libmatroska v1.3.0

Video
ID                                       : 1
Format                                   : AVC
Format/Info                              : Advanced Video Codec
Format profile                           : High@L4.0
Format settings, CABAC                   : Yes
Format settings, ReFrames                : 4 frames
Codec ID                                 : V_MPEG4/ISO/AVC
Duration                                 : 1h 34mn
Bit rate                                 : 4 900 Kbps
Width                                    : 1 908 pixels
Height                                   : 1 068 pixels
Display aspect ratio                     : 16:9
Frame rate mode                          : Constant
Frame rate                               : 23.976 fps
Color space                              : YUV
Chroma subsampling                       : 4:2:0
Bit depth                                : 8 bits
Scan type                                : Progressive
Bits/(Pixel*Frame)                       : 0.100
Stream size                              : 3.24 GiB (78%)
Language                                 : English
Default                                  : Yes
Forced                                   : No
Color primaries                          : BT.709
Transfer characteristics                 : BT.709
Matrix coefficients                      : BT.709

Audio #1
ID                                       : 2
Format                                   : AC-3
Format/Info                              : Audio Coding 3
Mode extension                           : CM (complete main)
Format settings, Endianness              : Big
Codec ID                                 : A_AC3
Duration                                 : 1h 34mn
Bit rate mode                            : Constant
Bit rate                                 : 640 Kbps
Channel count                            : 6 channels
Channel positions                        : Front: L C R, Side: L R, LFE
Sampling rate                            : 48.0 KHz
Bit depth                                : 16 bits
Compression mode                         : Lossy
Stream size                              : 433 MiB (10%)
Language                                 : Spanish
Default                                  : Yes
Forced                                   : No

Audio #2
ID                                       : 3
Format                                   : AC-3
Format/Info                              : Audio Coding 3
Mode extension                           : CM (complete main)
Format settings, Endianness              : Big
Codec ID                                 : A_AC3
Duration                                 : 1h 34mn
Bit rate mode                            : Constant
Bit rate                                 : 640 Kbps
Channel count                            : 6 channels
Channel positions                        : Front: L C R, Side: L R, LFE
Sampling rate                            : 48.0 KHz
Bit depth                                : 16 bits
Compression mode                         : Lossy
Stream size                              : 433 MiB (10%)
Language                                 : English
Default                                  : No
Forced                                   : No

Text #1
ID                                       : 4
Format                                   : UTF-8
Codec ID                                 : S_TEXT/UTF8
Codec ID/Info                            : UTF-8 Plain Text
Title                                    : Forzados
Language                                 : Spanish
Default                                  : Yes
Forced                                   : No

Text #2
ID                                       : 5
Format                                   : UTF-8
Codec ID                                 : S_TEXT/UTF8
Codec ID/Info                            : UTF-8 Plain Text
Language                                 : Spanish
Default                                  : No
Forced                                   : No

Text #3
ID                                       : 6
Format                                   : UTF-8
Codec ID                                 : S_TEXT/UTF8
Codec ID/Info                            : UTF-8 Plain Text
Language                                 : English
Default                                  : No
Forced                                   : No

Menu
00:00:00.000                             : en:Chapter 1
00:02:14.000                             : en:Chapter 2
00:11:19.000                             : en:Chapter 3
00:21:17.000                             : en:Chapter 4
00:31:32.000                             : en:Chapter 5
00:37:05.000                             : en:Chapter 6
00:49:49.000                             : en:Chapter 7
00:58:26.000                             : en:Chapter 8
01:08:25.000                             : en:Chapter 9
01:17:46.000                             : en:Chapter 10
01:27:51.000                             : en:Chapter 11
01:30:42.000                             : en:Chapter 12











1 Link



Código:
http://uploaded.net/file/lv0ji7rf/R3p3nt4nc3.BDR.m.1080p.flash.rar

Links Por Partes



Código:
http://uploaded.net/file/m3eyu1rz/R3p3nt4nc3.BDR.m.1080p-flash.part1.rar
http://uploaded.net/file/3ujsg4b6/R3p3nt4nc3.BDR.m.1080p-flash.part2.rar
http://uploaded.net/file/6jff35vi/R3p3nt4nc3.BDR.m.1080p-flash.part3.rar
http://uploaded.net/file/fytttse7/R3p3nt4nc3.BDR.m.1080p-flash.part4.rar
http://uploaded.net/file/9g552di5/R3p3nt4nc3.BDR.m.1080p-flash.part5.rar
http://uploaded.net/file/e6wj4xfg/R3p3nt4nc3.BDR.m.1080p-flash.part6.rar

Mixto - Uptobox, 1Fichier (Uploaded 100 MB Aproximadamente)




Código:
http://uptobox.com/ctinmt251trh
http://uptobox.com/6a2dgjqj1dxw
http://uptobox.com/pdprjx2d3qdm
http://uptobox.com/rv1v12h27e29
http://uptobox.com/1bjxgezr50co
http://uploaded.net/file/e6wj4xfg/R3p3nt4nc3.BDR.m.1080p-flash.part6.rar




Código:
https://1fichier.com/?5s5swplt1w
https://1fichier.com/?elifzjwvib
https://1fichier.com/?ro59fnvo7x
https://1fichier.com/?iod0nvz5sn
https://1fichier.com/?fqs83j8wfi
http://uploaded.net/file/e6wj4xfg/R3p3nt4nc3.BDR.m.1080p-flash.part6.rar