Un chico llamado Griffin (Noah Crawford) qse encuentra una tarjeta de béisbol de millones de dólares que podría haber ayudado a salvar la casa de su mejor amigo, así que Griffin se une a un equipo de sus compañeros de clase para recuperarlo.




Título original Swindle (TV)
Año 2013
Duración 92 min.
País Estados Unidos
Director Jonathan Judge
Guión Eric Freiser, Bill Motz, Bob Roth
Música John Van Tongeren
Fotografía Tom Harting
Reparto Noah Crawford, Jennette McCurdy, Chris O'Neal, Ciara Bravo, Ariana Grande, Noah Munck, Fane Tse, Matteo Stefan, Farrah Aviva, Bethany Brown
Productora Pacific Bay Entertainment / Pacific Bay Entertainment Canada / Nickelodeon Productions
Género Comedia. Aventuras | Telefilm

CALIDAD DE VIDEO: WEBDL 720p
CALIDAD DE AUDIO: Castellano AC3 2.0 / Ingles AC3 5.1
SUBS: Completos Español e ingles.
TAMAÑO: 3.2 GB
Descomprimir: WinRar

MEDIA INFO

Código:
General

Format                                   : Matroska
Format version                           : Version 2
File size                                : 3.20 GiB
Duration                                 : 1h 32mn
Overall bit rate                         : 4 984 Kbps
Movie name                               : RD
Encoded date                             : UTC 2014-11-02 21:42:25
Writing application                      : mkvmerge v5.7.0 ('The Whirlwind') built on Jul  8 2012 20:08:51
Writing library                          : libebml v1.2.3 + libmatroska v1.3.0

Video
ID                                       : 1
Format                                   : AVC
Format/Info                              : Advanced Video Codec
Format profile                           : High@L3.1
Format settings, CABAC                   : No
Format settings, ReFrames                : 2 frames
Codec ID                                 : V_MPEG4/ISO/AVC
Duration                                 : 1h 32mn
Bit rate                                 : 4 053 Kbps
Width                                    : 1 280 pixels
Height                                   : 718 pixels
Display aspect ratio                     : 16:9
Frame rate mode                          : Constant
Frame rate                               : 23.976 fps
Color space                              : YUV
Chroma subsampling                       : 4:2:0
Bit depth                                : 8 bits
Scan type                                : Progressive
Bits/(Pixel*Frame)                       : 0.184
Stream size                              : 2.61 GiB (81%)
Language                                 : English
Default                                  : Yes
Forced                                   : No
Color primaries                          : BT.709
Transfer characteristics                 : BT.709
Matrix coefficients                      : BT.709

Audio #1
ID                                       : 2
Format                                   : AC-3
Format/Info                              : Audio Coding 3
Mode extension                           : CM (complete main)
Format settings, Endianness              : Big
Codec ID                                 : A_AC3
Duration                                 : 1h 32mn
Bit rate mode                            : Constant
Bit rate                                 : 448 Kbps
Channel(s)                               : 2 channels
Channel positions                        : Front: L R
Sampling rate                            : 48.0 KHz
Bit depth                                : 16 bits
Compression mode                         : Lossy
Stream size                              : 295 MiB (9%)
Language                                 : Spanish
Default                                  : No
Forced                                   : Yes

Audio #2
ID                                       : 3
Format                                   : AC-3
Format/Info                              : Audio Coding 3
Mode extension                           : CM (complete main)
Format settings, Endianness              : Big
Codec ID                                 : A_AC3
Duration                                 : 1h 32mn
Bit rate mode                            : Constant
Bit rate                                 : 384 Kbps
Channel(s)                               : 6 channels
Channel positions                        : Front: L C R, Side: L R, LFE
Sampling rate                            : 48.0 KHz
Bit depth                                : 16 bits
Compression mode                         : Lossy
Stream size                              : 253 MiB (8%)
Language                                 : English
Default                                  : No
Forced                                   : No

Text #1
ID                                       : 4
Format                                   : UTF-8
Codec ID                                 : S_TEXT/UTF8
Codec ID/Info                            : UTF-8 Plain Text
Language                                 : Spanish
Default                                  : No
Forced                                   : No

Text #2
ID                                       : 5
Format                                   : UTF-8
Codec ID                                 : S_TEXT/UTF8
Codec ID/Info                            : UTF-8 Plain Text
Language                                 : English
Default                                  : No
Forced                                   : No











1 Link



Código:
http://uploaded.net/file/otpp3f2y/Sw1ndl3.WEB.m720.flash.rar

Links Por Partes



Código:
http://uploaded.net/file/5nkfoy5y/Sw1ndl3.WEB.m720-flash.part1.rar
http://uploaded.net/file/lz0s09ca/Sw1ndl3.WEB.m720-flash.part2.rar
http://uploaded.net/file/emfm712a/Sw1ndl3.WEB.m720-flash.part3.rar
http://uploaded.net/file/ifw8rk7f/Sw1ndl3.WEB.m720-flash.part4.rar
http://uploaded.net/file/z6t6hi37/Sw1ndl3.WEB.m720-flash.part5.rar

Mixto - Uptobox, 1Fichier (Uploaded 100 MB Aproximadamente)




Código:
http://uptobox.com/lw6281igp17b
http://uptobox.com/eoqr6umo1f28
http://uptobox.com/bf92ezk0ktz2
http://uptobox.com/3evfvbzbzpe5
http://uploaded.net/file/z6t6hi37/Sw1ndl3.WEB.m720-flash.part5.rar




Código:
https://1fichier.com/?u3h2qmx6lm
https://1fichier.com/?lons0bs3xi
https://1fichier.com/?yrhkrblhzx
https://1fichier.com/?kjwaw6wzcv
http://uploaded.net/file/z6t6hi37/Sw1ndl3.WEB.m720-flash.part5.rar