http://www.imdb.com/title/tt1731141/

Titulo original Ender's Game
Ano 2013
Pais Estados Unidos
Director Gavin Hood
Guion Gavin Hood (Novela: Orson Scott Card)
Musica Steve Jablonsky
Fotografia Donald McAlpine
Reparto Asa Butterfield, Harrison Ford, Hailee Steinfeld, Ben Kingsley, Viola Davis, Suraj Partha, Abigail Breslin, Moises Arias, Jimmy 'Jax' Pinchak, Aramis Knight, Brendan Meyer, Conor Carroll, Khylin Rhambo, Brandon Soo Hoo, Nonso Anozie
Productora Summit Entertainment / Chartoff Productions / Kurtzman Orci Paper Products / Odd Lot Entertainment
Genero Ciencia ficcion. Belico. Accion | Extraterrestres. Ejercito
Sinopsis Setenta anos despues de una guerra entre seres humanos y extraterrestres, un nino es enviado a una escuela militar espacial con el fin de prepararlo para una futura invasion. Adaptacion de la popular novela de ciencia-ficcion de Orson Scott Card


General
Complete name: Enders.Game.LATINO.2013.1080p.BluRay.x264-SPARKS.mkv
Format: Matroska
File size: 9.09 GiB
Duration: 1h 53mn
Overall bit rate: 11.4 Mbps
Movie name: Ender's Game (2013) Full HD 1080p Dual - Pocos Megas HD
Encoded date: UTC 2014-01-31 01:29:53
Writing application: mkvmerge v5.7.0 ('The Whirlwind') built on Jul 8 2012 20:08:51
Writing library: libebml v1.2.3 + libmatroska v1.3.0
Video
ID: 1
Format: AVC
Format/Info: Advanced Video Codec
Format profile: High@L4.0
Format settings, CABAC: Yes
Format settings, ReFrames: 5 frames
Muxing mode: Container profile=Unknown@4.0
Codec ID: V_MPEG4/ISO/AVC
Duration: 1h 53mn
Bit rate: 9 487 Kbps
Width: 1 920 pixels
Height: 800 pixels
Display aspect ratio: 2.40:1
Frame rate: 23.976 fps
Color space: YUV
Chroma subsampling: 4:2:0
Bit depth: 8 bits
Scan type: Progressive
Bits/(Pixel*Frame): 0.258
Stream size: 7.36 GiB (81%)
Writing library: x264 core 140 r2377 1ca7bb9
Audio #1
ID: 2
Format: DTS
Format/Info: Digital Theater Systems
Codec ID: A_DTS
Duration: 1h 53mn
Bit rate mode: Constant
Bit rate: 1 510 Kbps
Channel(s): 6 channels
Channel positions: Front: L C R, Side: L R, LFE
Sampling rate: 48.0 KHz
Bit depth: 24 bits
Stream size: 1.20 GiB (13%)
Title: English

Audio #2
ID: 3
Format: AC-3
Format/Info: Audio Coding 3
Mode extension: CM (complete main)
Codec ID: A_AC3
Duration: 1h 53mn
Bit rate mode: Constant
Bit rate: 448 Kbps
Channel(s): 6 channels
Channel positions: Front: L C R, Side: L R, LFE
Sampling rate: 48.0 KHz
Bit depth: 16 bits
Video delay: 500ms
Stream size: 365 MiB (4%)
Title: Espanol Latino
Language: Spanish
Text
ID: 4
Format: UTF-8
Codec ID: S_TEXT/UTF8
Codec ID/Info: UTF-8 Plain Text
AUDIOS: Ingles / Espanol Latino
SUBTITULOS: Ingles / Espanol Latino