Resultados 1 al 1 de 1

Tema: Por 13 Razones [T.1][MicroHD 1080p][Esp/Eng][Subs][Intriga][1 GB][13/13][VS]

  1. #1
    Leecher Avatar de powell74
    Pais
    Spain
    Bandera
    Ingreso
    Jan 2018
    Género
    Agradecer
    4
    Agrad. 9 veces en 6 posteos

    Por 13 Razones [T.1][MicroHD 1080p][Esp/Eng][Subs][Intriga][1 GB][13/13][VS]















    Título original: 13 Reasons Why
    Título en español: Por trece razones
    Año: 2017
    Duración por capítulo: 60 min.
    País: Estados Unidos
    Director: Tom McCarthy, Gregg Araki, Carl Franklin, Jessica Yu, Kyle Patrick Alvarez
    Guión: Brian Yorkey, Elizabeth Benjamin, Diana Son, Thomas Higgins, Nathan Jackson, Nathan Louis Jackson, Nic Sheff, Hayley Tyler (Libro: Jay Asher)
    Música: Eskmo
    Fotografía: Ivan Strasburg, Andrij Parekh
    Reparto: Dylan Minnette, Katherine Langford, Christian Navarro, Alisha Boe, Brandon Flynn, Justin Prentice, Miles Heizer, Ross Butler, Devin Druid, Amy Hargreaves, Derek Luke, Kate Walsh, Michele Selene Ang, Brian d'Arcy James, Sosie Bacon, Steven Weber, Mark Pellegrino, Ajiona Alexus, Henry Zaga, Steven Silver, Tommy Dorfman, Robert Gant, Keiko Agena, Uriah Shelton, Brandon Larracuente, Timothy Granaderos, Josh Hamilton
    Productora: Netflix / Kicked to the Curb Productions / Anonymous Content / July Moon Productions
    Género: Serie de TV. Drama. Intriga | Adolescencia. Colegios & Universidad. Acoso escolar











    Calidad: MicroHD 1080p
    Formato: MKV
    Resolución: 1920x1080p
    Video: AVC H264
    Audio: Esp/Eng AC3 5.1 48.000 Khz
    Tamaño: 1 GB Aprox.
    Subtitulos: Forzados y completos


    Descomprimir con winrar, 7zip o programa similar.





    Media Info:



    Código:
    
    General
    Unique ID                   : 194378074857436129887960671781467974460 (0x923BDB0164FC4913A55CA448BE3FEB3C)
    Complete name               : Por13Razones.1x01M1O8O.mkv
    Format                      : Matroska
    Format version              : Version 4 / Version 2
    File size                   : 980 MiB
    Duration                    : 52 min 38 s
    Overall bit rate            : 2 602 kb/s
    Movie name                  : 13 Reasons Why S01E01 by heyshir
    Encoded date                : UTC 2017-05-02 12:50:00
    Writing application         : mkvmerge v11.0.0 ('Alive') 64bit
    Writing library             : libebml v1.3.4 + libmatroska v1.4.5
    
    
    Video
    ID                          : 1
    Format                      : AVC
    Format/Info                 : Advanced Video Codec
    Format profile              : High@L5.1
    Format settings             : CABAC / 4 Ref Frames
    Format settings, CABAC      : Yes
    Format settings, RefFrames  : 4 frames
    Codec ID                    : V_MPEG4/ISO/AVC
    Duration                    : 52 min 38 s
    Bit rate                    : 1 900 kb/s
    Width                       : 1 920 pixels
    Height                      : 1 080 pixels
    Display aspect ratio        : 16:9
    Frame rate mode             : Constant
    Frame rate                  : 23.976 (24000/1001) FPS
    Color space                 : YUV
    Chroma subsampling          : 4:2:0
    Bit depth                   : 8 bits
    Scan type                   : Progressive
    Bits/(Pixel*Frame)          : 0.038
    Stream size                 : 690 MiB (70%)
    Title                       : WEBRip m1080p by heyshir
    Writing library             : x264 core 148 r2708 86b7198
    Encoding settings           : cabac=1 / ref=2 / deblock=1:-1:-1 / analyse=0x3:0x113 / me=hex / subme=4 / psy=1 / psy_rd=1.00:0.15 / mixed_ref=0 / me_range=16 / chroma_me=1 / trellis=1 / 8x8dct=1 / cqm=0 / deadzone=21,11 / fast_pskip=1 / chroma_qp_offset=-1 / threads=12 / lookahead_threads=3 / sliced_threads=0 / nr=0 / decimate=1 / interlaced=0 / bluray_compat=0 / constrained_intra=0 / bframes=3 / b_pyramid=2 / b_adapt=1 / b_bias=0 / direct=1 / weightb=1 / open_gop=0 / weightp=1 / keyint=240 / keyint_min=24 / scenecut=40 / intra_refresh=0 / rc_lookahead=20 / rc=abr / mbtree=1 / bitrate=1900 / ratetol=1.0 / qcomp=0.60 / qpmin=0 / qpmax=69 / qpstep=4 / vbv_maxrate=300000 / vbv_bufsize=300000 / nal_hrd=none / filler=0 / ip_ratio=1.40 / aq=1:1.00
    Language                    : English
    Default                     : Yes
    Forced                      : Yes
    Color range                 : Limited
    Color primaries             : BT.709
    Transfer characteristics    : BT.709
    Matrix coefficients         : BT.709
    
    
    Audio #1
    ID                          : 2
    Format                      : AC-3
    Format/Info                 : Audio Coding 3
    Format settings, Endianness : Big
    Codec ID                    : A_AC3
    Duration                    : 52 min 38 s
    Bit rate mode               : Constant
    Bit rate                    : 384 kb/s
    Channel(s)                  : 6 channels
    Channel positions           : Front: L C R, Side: L R, LFE
    Sampling rate               : 48.0 kHz
    Frame rate                  : 31.250 FPS (1536 SPF)
    Bit depth                   : 16 bits
    Compression mode            : Lossy
    Stream size                 : 145 MiB (15%)
    Title                       : Ingles AC3 5.1 @ 384 Kbps
    Language                    : English
    Service kind                : Complete Main
    Default                     : No
    Forced                      : No
    
    
    Audio #2
    ID                          : 3
    Format                      : AC-3
    Format/Info                 : Audio Coding 3
    Format settings, Endianness : Big
    Codec ID                    : A_AC3
    Duration                    : 52 min 38 s
    Bit rate mode               : Constant
    Bit rate                    : 384 kb/s
    Channel(s)                  : 6 channels
    Channel positions           : Front: L C R, Side: L R, LFE
    Sampling rate               : 48.0 kHz
    Frame rate                  : 31.250 FPS (1536 SPF)
    Bit depth                   : 16 bits
    Compression mode            : Lossy
    Stream size                 : 145 MiB (15%)
    Title                       : Español AC3 5.1 @ 384 kbps
    Language                    : Spanish
    Service kind                : Complete Main
    Default                     : Yes
    Forced                      : Yes
    
    
    Text #1
    ID                          : 4
    Format                      : ASS
    Codec ID                    : S_TEXT/ASS
    Codec ID/Info               : Advanced Sub Station Alpha
    Duration                    : 49 min 31 s
    Bit rate                    : 112 b/s
    Count of elements           : 768
    Compression mode            : Lossless
    Stream size                 : 40.9 KiB (0%)
    Title                       : Subs Inglés by heyshir
    Language                    : English
    Default                     : No
    Forced                      : No
    
    
    Text #2
    ID                          : 5
    Format                      : ASS
    Codec ID                    : S_TEXT/ASS
    Codec ID/Info               : Advanced Sub Station Alpha
    Duration                    : 51 min 55 s
    Bit rate                    : 125 b/s
    Count of elements           : 876
    Compression mode            : Lossless
    Stream size                 : 47.8 KiB (0%)
    Title                       : Subs Inglés SDH by heyshir
    Language                    : English
    Default                     : No
    Forced                      : No
    
    
    Text #3
    ID                          : 6
    Format                      : ASS
    Codec ID                    : S_TEXT/ASS
    Codec ID/Info               : Advanced Sub Station Alpha
    Duration                    : 50 min 33 s
    Bit rate                    : 107 b/s
    Count of elements           : 773
    Compression mode            : Lossless
    Stream size                 : 39.6 KiB (0%)
    Title                       : Subs Español by heyshir
    Language                    : Spanish
    Default                     : No
    Forced                      : No
    
    
    Text #4
    ID                          : 7
    Format                      : ASS
    Codec ID                    : S_TEXT/ASS
    Codec ID/Info               : Advanced Sub Station Alpha
    Duration                    : 31 min 28 s
    Bit rate                    : 0 b/s
    Count of elements           : 4
    Compression mode            : Lossless
    Stream size                 : 195 Bytes (0%)
    Title                       : Subs Forzados Español by heyshir
    Language                    : Spanish
    Default                     : Yes
    Forced                      : Yes









    El adolescente Clay Jensen (Dylan Minnette) vuelve un día a casa después del colegio y encuentra una misteriosa caja con su nombre. Dentro descubre una cinta grabada por Hannah Baker (Katherine Langford), una compañera de clase por la que sentía algo especial y que se suicidó tan solo dos semanas atrás. En la cinta, Hannah cuenta que hay trece razones por las que ha decidido quitarse la vida. ¿Será Clay una de ellas? Si lo escucha, tendrá oportunidad de conocer cada motivo de su lista.


























    Para descargar es necesario tener abierto JDownloader v2 o Mipony que son los gestores de descarga recomendados
















    1x01:




    Contenido oculto. Comenta o agradece para ver el contenido.

    SI COMENTAS UTILIZANDO LA RESPUESTA RÁPIDA Y NO VISUALIZAS EL CONTENIDO RECUERDA REFRESCAR LA PÁGINA.




    1x02:




    Contenido oculto. Comenta o agradece para ver el contenido.

    SI COMENTAS UTILIZANDO LA RESPUESTA RÁPIDA Y NO VISUALIZAS EL CONTENIDO RECUERDA REFRESCAR LA PÁGINA.




    1x03:




    Contenido oculto. Comenta o agradece para ver el contenido.

    SI COMENTAS UTILIZANDO LA RESPUESTA RÁPIDA Y NO VISUALIZAS EL CONTENIDO RECUERDA REFRESCAR LA PÁGINA.




    1x04:




    Contenido oculto. Comenta o agradece para ver el contenido.

    SI COMENTAS UTILIZANDO LA RESPUESTA RÁPIDA Y NO VISUALIZAS EL CONTENIDO RECUERDA REFRESCAR LA PÁGINA.




    1x05:




    Contenido oculto. Comenta o agradece para ver el contenido.

    SI COMENTAS UTILIZANDO LA RESPUESTA RÁPIDA Y NO VISUALIZAS EL CONTENIDO RECUERDA REFRESCAR LA PÁGINA.




    1x06:




    Contenido oculto. Comenta o agradece para ver el contenido.

    SI COMENTAS UTILIZANDO LA RESPUESTA RÁPIDA Y NO VISUALIZAS EL CONTENIDO RECUERDA REFRESCAR LA PÁGINA.




    1x07:




    Contenido oculto. Comenta o agradece para ver el contenido.

    SI COMENTAS UTILIZANDO LA RESPUESTA RÁPIDA Y NO VISUALIZAS EL CONTENIDO RECUERDA REFRESCAR LA PÁGINA.




    1x08:




    Contenido oculto. Comenta o agradece para ver el contenido.

    SI COMENTAS UTILIZANDO LA RESPUESTA RÁPIDA Y NO VISUALIZAS EL CONTENIDO RECUERDA REFRESCAR LA PÁGINA.




    1x09:




    Contenido oculto. Comenta o agradece para ver el contenido.

    SI COMENTAS UTILIZANDO LA RESPUESTA RÁPIDA Y NO VISUALIZAS EL CONTENIDO RECUERDA REFRESCAR LA PÁGINA.




    1x10:




    Contenido oculto. Comenta o agradece para ver el contenido.

    SI COMENTAS UTILIZANDO LA RESPUESTA RÁPIDA Y NO VISUALIZAS EL CONTENIDO RECUERDA REFRESCAR LA PÁGINA.




    1x11:




    Contenido oculto. Comenta o agradece para ver el contenido.

    SI COMENTAS UTILIZANDO LA RESPUESTA RÁPIDA Y NO VISUALIZAS EL CONTENIDO RECUERDA REFRESCAR LA PÁGINA.




    1x12:






    Contenido oculto. Comenta o agradece para ver el contenido.

    SI COMENTAS UTILIZANDO LA RESPUESTA RÁPIDA Y NO VISUALIZAS EL CONTENIDO RECUERDA REFRESCAR LA PÁGINA.




    1x13:




    Contenido oculto. Comenta o agradece para ver el contenido.

    SI COMENTAS UTILIZANDO LA RESPUESTA RÁPIDA Y NO VISUALIZAS EL CONTENIDO RECUERDA REFRESCAR LA PÁGINA.






    Recuerda que descargando una parte de cada servidor estás ayudando a la comunidad de uploaders y a ti para descargar antes si tienes límites de espera









  2. Los siguientes 2 usuarios agradecieron a powell74 por este aporte:

    cheluirey (10 02 2018),joseruizga (10 02 2018)

Permisos de publicación

  • No puedes crear nuevos temas
  • No puedes responder temas
  • No puedes subir archivos adjuntos
  • No puedes editar tus mensajes
  •