Resultados 1 al 2 de 2

Tema: La Peste [T.1][MicroHD 1080p][Castellano][Thriller][2 GB][6/6][VS]

  1. #1
    Leecher Avatar de powell74
    Pais
    Spain
    Bandera
    Ingreso
    Jan 2018
    Género
    Agradecer
    4
    Agrad. 8 veces en 6 posteos

    Video La Peste [T.1][MicroHD 1080p][Castellano][Thriller][2 GB][6/6][VS]















    Título original La peste (Miniserie de TV)
    Año 2017
    País España
    Dirección Alberto Rodríguez
    Guion Alberto Rodríguez, Rafael Cobos, Fran Araújo
    Música Julio de la Rosa
    Fotografía Pau Esteve Birba
    Reparto Pablo Molinero, Paco León, Manolo Solo, Sergio Castellanos, Patricia López, Lupe del Junco, Tomás del Estal, Paco Tous, Cecilia Gómez, Antonio Gil, Javier Botet, Jesús Carroza, Carlo d'Ursi
    Productora Atípica Films / Movistar+
    Género Serie de TV. Thriller | Miniserie de TV. Siglo XVI











    Calidad: MicroHD 1080p
    Formato: MKV
    Resolución: 1920x1080p
    Video: AVC H264
    Audio: Castellano AC3 5.1 48.000 Khz
    Tamaño: 2 GB Aprox.
    Subtitulos: completos en Español


    Descomprimir con winrar, 7zip o programa similar.





    Media Info:


    [spoiler]


    Código:
    
    General
    Unique ID                   : 197661215632906587748587087254116877048 (0x94B42A57DC33C2D68F7029981CDBC2F8)
    Complete name               : La_Peste_1x01_La_palabra.mkv
    Format                      : Matroska
    Format version              : Version 4 / Version 2
    File size                   : 2.17 GiB
    Duration                    : 48 min 31 s
    Overall bit rate            : 6 409 kb/s
    Movie name                  : La Peste 1x01 La palabra
    Encoded date                : UTC 2018-01-15 20:06:15
    Writing application         : mkvmerge v17.0.0 ('Be Ur Friend') 64-bit
    Writing library             : libebml v1.3.5 + libmatroska v1.4.8
    
    
    Video
    ID                          : 1
    Format                      : AVC
    Format/Info                 : Advanced Video Codec
    Format profile              : High@L4
    Format settings             : CABAC / 4 Ref Frames
    Format settings, CABAC      : Yes
    Format settings, RefFrames  : 4 frames
    Format settings, GOP        : M=8, N=24
    Codec ID                    : V_MPEG4/ISO/AVC
    Duration                    : 48 min 31 s
    Bit rate                    : 5 959 kb/s
    Width                       : 1 920 pixels
    Height                      : 1 080 pixels
    Display aspect ratio        : 16:9
    Frame rate mode             : Constant
    Frame rate                  : 25.000 FPS
    Standard                    : Component
    Color space                 : YUV
    Chroma subsampling          : 4:2:0
    Bit depth                   : 8 bits
    Scan type                   : MBAFF
    Scan type, store method     : Interleaved fields
    Scan order                  : Top Field First
    Bits/(Pixel*Frame)          : 0.115
    Stream size                 : 2.02 GiB (93%)
    Title                       : La Peste 1x01 La palabra
    Language                    : Spanish
    Default                     : Yes
    Forced                      : No
    Color range                 : Limited
    Color primaries             : BT.709
    Transfer characteristics    : BT.709
    Matrix coefficients         : BT.709
    
    
    Audio
    ID                          : 2
    Format                      : AC-3
    Format/Info                 : Audio Coding 3
    Format settings, Endianness : Big
    Codec ID                    : A_AC3
    Duration                    : 48 min 31 s
    Bit rate mode               : Constant
    Bit rate                    : 448 kb/s
    Channel(s)                  : 6 channels
    Channel positions           : Front: L C R, Side: L R, LFE
    Sampling rate               : 48.0 kHz
    Frame rate                  : 31.250 FPS (1536 SPF)
    Bit depth                   : 16 bits
    Compression mode            : Lossy
    Stream size                 : 155 MiB (7%)
    Title                       : Español AC3 5.1 @448kbps
    Language                    : Spanish
    Service kind                : Complete Main
    Default                     : Yes
    Forced                      : No
    
    
    Text
    ID                          : 3
    Format                      : UTF-8
    Codec ID                    : S_TEXT/UTF8
    Codec ID/Info               : UTF-8 Plain Text
    Duration                    : 47 min 0 s
    Bit rate                    : 33 b/s
    Count of elements           : 428
    Stream size                 : 11.4 KiB (0%)
    Title                       : Español completos
    Language                    : Spanish
    Default                     : No
    Forced                      : No

    [/spoiler]








    En la segunda mitad el Siglo XVI, Sevilla era la metrópoli del mundo occidental. Puerta de acceso de América en Europa. Ciudad donde la riqueza florecía con facilidad gracias al comercio internacional, al oro, la plata; a la convivencia de nacionales y extranjeros: cristianos, judíos conversos, moriscos, esclavos, libertos, pícaros, ladrones, prostitutas, nobles y plebeyos. Pero también era una ciudad de sombras por la desigualdad, las hambrunas y epidemias.


    En medio de un brote de peste, varios miembros destacados de la sociedad sevillana aparecen asesinados. Mateo, condenado por la Inquisición, debe resolver esta serie de crímenes diabólicos para lograr el perdón del Santo Oficio y así salvar su vida. Una investigación a vida o muerte en un entorno de represión pública y hedonismo privado; de misticismo y caos; de conventos relajados y burdeles reglamentados; de cárceles como escondite; de hospitales como tumbas; de traiciones y lealtades.








    [spoiler]











    [/spoiler]









    Para descargar es necesario tener abierto JDownloader v2 o Mipony que son los gestores de descarga recomendados
















    0X01: (Como se hizo la peste)


    Contenido oculto. Comenta o agradece para ver el contenido.

    SI COMENTAS UTILIZANDO LA RESPUESTA RÁPIDA Y NO VISUALIZAS EL CONTENIDO RECUERDA REFRESCAR LA PÁGINA.




    1X01:


    Contenido oculto. Comenta o agradece para ver el contenido.

    SI COMENTAS UTILIZANDO LA RESPUESTA RÁPIDA Y NO VISUALIZAS EL CONTENIDO RECUERDA REFRESCAR LA PÁGINA.




    1X02:

    Contenido oculto. Comenta o agradece para ver el contenido.

    SI COMENTAS UTILIZANDO LA RESPUESTA RÁPIDA Y NO VISUALIZAS EL CONTENIDO RECUERDA REFRESCAR LA PÁGINA.




    1X03:


    Contenido oculto. Comenta o agradece para ver el contenido.

    SI COMENTAS UTILIZANDO LA RESPUESTA RÁPIDA Y NO VISUALIZAS EL CONTENIDO RECUERDA REFRESCAR LA PÁGINA.




    1X04:


    Contenido oculto. Comenta o agradece para ver el contenido.

    SI COMENTAS UTILIZANDO LA RESPUESTA RÁPIDA Y NO VISUALIZAS EL CONTENIDO RECUERDA REFRESCAR LA PÁGINA.




    1X05:
    Contenido oculto. Comenta o agradece para ver el contenido.

    SI COMENTAS UTILIZANDO LA RESPUESTA RÁPIDA Y NO VISUALIZAS EL CONTENIDO RECUERDA REFRESCAR LA PÁGINA.




    1X06:


    Contenido oculto. Comenta o agradece para ver el contenido.

    SI COMENTAS UTILIZANDO LA RESPUESTA RÁPIDA Y NO VISUALIZAS EL CONTENIDO RECUERDA REFRESCAR LA PÁGINA.






    Recuerda que descargando una parte de cada servidor estás ayudando a la comunidad de uploaders y a ti para descargar antes si tienes límites de espera








    Última edición por Luisfecab; 08 02 2018 a las 05:13 PM Razón: Quitar contenedor.

  2. El siguiente usuario agradeció a powell74 por este aporte:

    Luisfecab (08 02 2018)

  3. #2
    Maestro Alquimista Avatar de Luisfecab
    Pais
    Colombia
    Bandera
    Ingreso
    Oct 2008
    Ubicación
    Cota
    Género
    Agradecer
    10,223
    Agrad. 3,709 veces en 1,866 posteos
    Entradas de blog
    4

    Re: La Peste [T.1][MicroHD 1080p][Castellano][Thriller][2 GB][6/6][VS]

    Gracias powell por el aporte, por desgracia te tuve que quitar el Safelink ya que no esta permitido.
    Reglamento del Foro / Activar Notificación


    "Si tienes el conocimiento; tienes la ventaja....."



  4. El siguiente usuario agradeció a Luisfecab por este aporte:

    powell74 (08 02 2018)

Permisos de publicación

  • No puedes crear nuevos temas
  • No puedes responder temas
  • No puedes subir archivos adjuntos
  • No puedes editar tus mensajes
  •